Featured TV Shows


Bull S01E01

Posted By: Tavaz
720p (HD) / HDTV IMDb
Bull S01E01

Bull S01E01
HDTV | MKV | 1280x720 | English | H264 @ 2623 kbps | AC-3 @ 384 kbps | 43 min 53 s | 944 MiB
Genre: Drama

Dr. Jason Bull is the brilliant, brash, and charming founder of a hugely successful trial consulting firm.

17396c79a8fb4d1991cd747eae45f8cd.mkv (944.5 MB)



General
Unique ID : 246993470635610000661844296879192154420 (0xB9D1364D44C22255593B75F1A06C2134)
Complete name : ./17396c79a8fb4d1991cd747eae45f8cd.mkv
Format : Matroska
Format version : Version 4 / Version 2
File size : 944 MiB
Duration : 43 min 53 s
Overall bit rate : 3 009 kb/s
Encoded date : UTC 2016-09-20 14:51:44
Writing application : mkvmerge v8.4.0 ('A better way to fly') 64bit
Writing library : libebml v1.3.1 + libmatroska v1.4.2

Video
ID : 1
Format : AVC
Format/Info : Advanced Video Codec
Format profile : High@L4.1
Format settings : CABAC / 9 Ref Frames
Format settings, CABAC : Yes
Format settings, RefFrames : 9 frames
Codec ID : V_MPEG4/ISO/AVC
Duration : 43 min 53 s
Bit rate : 2 623 kb/s
Width : 1 280 pixels
Height : 720 pixels
Display aspect ratio : 16:9
Frame rate mode : Constant
Frame rate : 23.976 (24000/1001) FPS
Color space : YUV
Chroma subsampling : 4:2:0
Bit depth : 8 bits
Scan type : Progressive
Bits/(Pixel*Frame) : 0.119
Stream size : 823 MiB (87%)
Writing library : x264 core 148 r2705 3f5ed56
Encoding settings : cabac=1 / ref=9 / deblock=1:-2:-2 / analyse=0x3:0x133 / me=umh / subme=10 / psy=1 / psy_rd=1.00:0.00 / mixed_ref=1 / me_range=32 / chroma_me=1 / trellis=2 / 8x8dct=1 / cqm=0 / deadzone=21,11 / fast_pskip=0 / chroma_qp_offset=-2 / threads=16 / lookahead_threads=1 / sliced_threads=0 / nr=0 / decimate=1 / interlaced=0 / bluray_compat=0 / constrained_intra=0 / bframes=5 / b_pyramid=2 / b_adapt=2 / b_bias=0 / direct=3 / weightb=1 / open_gop=0 / weightp=2 / keyint=250 / keyint_min=23 / scenecut=40 / intra_refresh=0 / rc_lookahead=60 / rc=crf / mbtree=1 / crf=18.0 / qcomp=0.60 / qpmin=0 / qpmax=69 / qpstep=4 / ip_ratio=1.40 / aq=1:1.00
Language : English
Default : Yes
Forced : No
Color range : Limited
Matrix coefficients : BT.709

Audio
ID : 2
Format : AC-3
Format/Info : Audio Coding 3
Format settings, Endianness : Big
Codec ID : A_AC3
Duration : 43 min 53 s
Bit rate mode : Constant
Bit rate : 384 kb/s
Channel(s) : 6 channels
Channel positions : Front: L C R, Side: L R, LFE
Sampling rate : 48.0 kHz
Frame rate : 31.250 FPS (1536 SPF)
Bit depth : 16 bits
Compression mode : Lossy
Stream size : 121 MiB (13%)
Service kind : Complete Main
Default : Yes
Forced : No





Bull S01E01


Bull S01E01


Bull S01E01


Bull S01E01


Bull S01E01

All episodes