Featured TV Shows


Bull S02E01

Posted By: Tavaz
1080p (FullHD) / WEB-DL IMDb
Bull S02E01

Bull S02E01
WEB-DL | MKV | 1920x1080 | English | H264 @ 8440 kbps | E-AC-3 @ 640 kbps | 43 min 44 s | 2.77 GiB
Subtitles: English
Genre: Drama

Dr. Jason Bull is the brilliant, brash, and charming founder of a hugely successful trial consulting firm.

Bull.2016.S02E01.School.for.Scandal.1080p.AMZN.WEB-DL.DDP5.1.H.264-NTb.mkv (2.8 GB)
Bull.2016.S02E02.Already.Gone.1080p.AMZN.WEB-DL.DDP5.1.H.264.NL-Sub.mkv (2.5 GB)



General
Unique ID : 229576802095243599861726841125751329001 (0xACB6E23EB294CEEC1571EA33734190E9)
Complete name : ./Bull.2016.S02E01.School.for.Scandal.1080p.AMZN.WEB-DL.DDP5.1.H.264-NTb.mkv
Format : Matroska
Format version : Version 4 / Version 2
File size : 2.77 GiB
Duration : 43 min 44 s
Overall bit rate mode : Variable
Overall bit rate : 9 082 kb/s
Encoded date : UTC 2017-09-27 23:32:36
Writing application : mkvmerge v15.0.0 ('Duel with the Devil') 64-bit
Writing library : libebml v1.3.5 + libmatroska v1.4.5

Video
ID : 1
Format : AVC
Format/Info : Advanced Video Codec
Format profile : High@L4
Format settings : CABAC / 4 Ref Frames
Format settings, CABAC : Yes
Format settings, RefFrames : 4 frames
Codec ID : V_MPEG4/ISO/AVC
Duration : 43 min 44 s
Bit rate mode : Variable
Bit rate : 8 440 kb/s
Maximum bit rate : 15.0 Mb/s
Width : 1 920 pixels
Height : 1 080 pixels
Display aspect ratio : 16:9
Frame rate mode : Constant
Frame rate : 23.976 (24000/1001) FPS
Color space : YUV
Chroma subsampling : 4:2:0
Bit depth : 8 bits
Scan type : Progressive
Bits/(Pixel*Frame) : 0.170
Stream size : 2.58 GiB (93%)
Default : Yes
Forced : No
Color range : Limited
Color primaries : BT.709
Transfer characteristics : BT.709
Matrix coefficients : BT.709

Audio
ID : 2
Format : E-AC-3
Format/Info : Enhanced Audio Coding 3
Format settings, Endianness : Big
Codec ID : A_EAC3
Duration : 43 min 44 s
Bit rate mode : Constant
Bit rate : 640 kb/s
Channel(s) : 6 channels
Channel positions : Front: L C R, Side: L R, LFE
Sampling rate : 48.0 kHz
Frame rate : 187.500 FPS (256 SPF)
Compression mode : Lossy
Stream size : 200 MiB (7%)
Language : English
Service kind : Complete Main
Default : Yes
Forced : No

Text
ID : 3
Format : UTF-8
Codec ID : S_TEXT/UTF8
Codec ID/Info : UTF-8 Plain Text
Duration : 43 min 6 s
Bit rate : 100 b/s
Count of elements : 1048
Stream size : 31.6 KiB (0%)
Language : English
Default : No
Forced : No





Bull S02E01


Bull S02E01


Bull S02E01


Bull S02E01


Bull S02E01

All episodes