Featured TV Shows


Bull S02E03

Posted By: Tavaz
1080p (FullHD) / WEB-DL IMDb
Bull S02E03

Bull S02E03
WEB-DL | MKV | 1920x1080 | English | H264 @ 11159 kbps | E-AC-3 @ 640 kbps | 43 min 40 s | 3.67 GiB
Subtitles: English, Dutch
Genre: Drama

Dr. Jason Bull is the brilliant, brash, and charming founder of a hugely successful trial consulting firm.

Bull.2016.S02E03.A.Business.of.Favors.1080p.AMZN.WEB-DL.DDP5.1.H.264.RETAIL.NL-Sub.mkv (3.7 GB)
vGcMoE1Ql9MsZHRDsa0JE8gu.part13.1.rar (167.3 MB)



General
Unique ID : 203246134004918255409322442246212035364 (0x98E7C8140F8707CA932F8B9F60302324)
Complete name : ./Bull.2016.S02E03.A.Business.of.Favors.1080p.AMZN.WEB-DL.DDP5.1.H.264.RETAIL.NL-Sub.mkv
Format : Matroska
Format version : Version 4 / Version 2
File size : 3.67 GiB
Duration : 43 min 40 s
Overall bit rate mode : Variable
Overall bit rate : 12.0 Mb/s
Encoded date : UTC 2018-02-24 21:57:12
Writing application : mkvmerge v6.3.0 ('You can't stop me!') built on Jun 27 2013 22:06:07
Writing library : libebml v1.3.0 + libmatroska v1.4.0

Video
ID : 1
Format : AVC
Format/Info : Advanced Video Codec
Format profile : High@L4
Format settings : CABAC / 4 Ref Frames
Format settings, CABAC : Yes
Format settings, RefFrames : 4 frames
Codec ID : V_MPEG4/ISO/AVC
Duration : 43 min 40 s
Bit rate mode : Variable
Bit rate : 11.2 Mb/s
Maximum bit rate : 15.0 Mb/s
Width : 1 920 pixels
Height : 1 080 pixels
Display aspect ratio : 16:9
Frame rate mode : Constant
Frame rate : 23.976 (24000/1001) FPS
Color space : YUV
Chroma subsampling : 4:2:0
Bit depth : 8 bits
Scan type : Progressive
Bits/(Pixel*Frame) : 0.224
Stream size : 3.41 GiB (93%)
Default : Yes
Forced : No
Color range : Limited
Color primaries : BT.709
Transfer characteristics : BT.709
Matrix coefficients : BT.709
Statistics Tags Issue : mkvmerge v16.0.0 ('Protest') 64-bit 2017-10-12 21:24:23 / mkvmerge v6.3.0 ('You can't stop me!') built on Jun 27 2013 22:06:07 2018-02-24 21:57:12
FromStats_BitRate : 11397071
FromStats_Duration : 00:43:40.994000000
FromStats_FrameCount : 62841
FromStats_StreamSize : 3733956909

Audio
ID : 2
Format : E-AC-3
Format/Info : Enhanced Audio Coding 3
Format settings, Endianness : Big
Codec ID : A_EAC3
Duration : 43 min 40 s
Bit rate mode : Constant
Bit rate : 640 kb/s
Channel(s) : 6 channels
Channel positions : Front: L C R, Side: L R, LFE
Sampling rate : 48.0 kHz
Frame rate : 187.500 FPS (256 SPF)
Compression mode : Lossy
Stream size : 200 MiB (5%)
Language : English
Service kind : Complete Main
Default : Yes
Forced : No
Statistics Tags Issue : mkvmerge v16.0.0 ('Protest') 64-bit 2017-10-12 21:24:23 / mkvmerge v6.3.0 ('You can't stop me!') built on Jun 27 2013 22:06:07 2018-02-24 21:57:12
FromStats_BitRate : 640000
FromStats_Duration : 00:43:40.960000000
FromStats_FrameCount : 81905
FromStats_StreamSize : 209676800

Text #1
ID : 3
Format : UTF-8
Codec ID : S_TEXT/UTF8
Codec ID/Info : UTF-8 Plain Text
Language : Dutch
Default : Yes
Forced : No

Text #2
ID : 4
Format : UTF-8
Codec ID : S_TEXT/UTF8
Codec ID/Info : UTF-8 Plain Text
Language : English
Default : No
Forced : No
Statistics Tags Issue : mkvmerge v16.0.0 ('Protest') 64-bit 2017-10-12 21:24:23 / mkvmerge v6.3.0 ('You can't stop me!') built on Jun 27 2013 22:06:07 2018-02-24 21:57:12
FromStats_BitRate : 102
FromStats_Duration : 00:43:06.784000000
FromStats_FrameCount : 1037
FromStats_StreamSize : 32997





Bull S02E03


Bull S02E03


Bull S02E03


Bull S02E03


Bull S02E03

All episodes