Featured TV Shows


Bull S02E06

Posted By: Tavaz
SD / HDTV IMDb
Bull S02E06

Bull S02E06
HDTV | MKV | 720x404 | German | H264 @ 659 kbps | AC-3 @ 192 kbps | 41 min 35 s | 254 MiB
Genre: Drama

Dr. Jason Bull betreibt Trial Sciences Inc., eine enorm erfolgreiche Beraterfirma, die sich auf die Beratung von Angeklagten bei Geschworenenverfahren spezialisiert hat. Dabei geht es aber nicht um Rechtsberatung im eigentlichen Sinn. Vielmehr bezieht sich die Dienstleistung darauf, wie man die Geschworenen mit diversen Tricks auf seine Seite zieht.

S02E06 German.mkv (235.5 MB)
S02E05 German.mkv (253.9 MB)



General
Unique ID : 119702468904072112272240406852762206869 (0x5A0DDB5FA1341DFF3CE43E370CB60295)
Complete name : ./B lluB S02E05 - S02E06 German/S02E05 German.mkv
Format : Matroska
Format version : Version 2
File size : 254 MiB
Duration : 41 min 35 s
Overall bit rate : 853 kb/s
Encoded date : UTC 2018-03-09 06:00:14
Writing application : mkvmerge v21.0.0 ('Tardigrades Will Inherit The Earth') 64-bit
Writing library : libebml v1.3.5 + libmatroska v1.4.8

Video
ID : 1
Format : AVC
Format/Info : Advanced Video Codec
Format profile : High@L3.1
Format settings : CABAC / 5 Ref Frames
Format settings, CABAC : Yes
Format settings, RefFrames : 5 frames
Codec ID : V_MPEG4/ISO/AVC
Duration : 41 min 35 s
Bit rate : 660 kb/s
Width : 720 pixels
Height : 404 pixels
Display aspect ratio : 16:9
Frame rate mode : Constant
Frame rate : 25.000 FPS
Color space : YUV
Chroma subsampling : 4:2:0
Bit depth : 8 bits
Scan type : Progressive
Bits/(Pixel*Frame) : 0.091
Stream size : 196 MiB (77%)
Writing library : x264 core 155 r2901 7d0ff22
Encoding settings : cabac=1 / ref=5 / deblock=1:-2:-2 / analyse=0x3:0x113 / me=umh / subme=8 / psy=1 / psy_rd=1.00:0.00 / mixed_ref=1 / me_range=16 / chroma_me=1 / trellis=2 / 8x8dct=1 / cqm=0 / deadzone=21,11 / fast_pskip=0 / chroma_qp_offset=-2 / threads=12 / lookahead_threads=2 / sliced_threads=0 / nr=0 / decimate=1 / interlaced=0 / bluray_compat=0 / constrained_intra=0 / bframes=3 / b_pyramid=2 / b_adapt=2 / b_bias=0 / direct=3 / weightb=1 / open_gop=0 / weightp=2 / keyint=250 / keyint_min=25 / scenecut=40 / intra_refresh=0 / rc_lookahead=50 / rc=crf / mbtree=1 / crf=19.0 / qcomp=0.60 / qpmin=0 / qpmax=69 / qpstep=4 / ip_ratio=1.40 / aq=1:0.80
Default : Yes
Forced : No

Audio
ID : 2
Format : AC-3
Format/Info : Audio Coding 3
Format settings, Endianness : Big
Codec ID : A_AC3
Duration : 41 min 35 s
Bit rate mode : Constant
Bit rate : 192 kb/s
Channel(s) : 2 channels
Channel positions : Front: L R
Sampling rate : 48.0 kHz
Frame rate : 31.250 FPS (1536 SPF)
Bit depth : 16 bits
Compression mode : Lossy
Stream size : 57.1 MiB (22%)
Language : German
Service kind : Complete Main
Default : Yes
Forced : No





Bull S02E06


Bull S02E06


Bull S02E06


Bull S02E06


Bull S02E06

All episodes