Featured TV Shows


Bull S02E07

Posted By: Tavaz
720p (HD) / WEB-DL IMDb
Bull S02E07

Bull S02E07
WEB-DL | MKV | 1280x720 | English | H264 @ 2009 kbps | E-AC-3 @ 640 kbps | 43 min 40 s | 828 MiB
Subtitles: English
Genre: Drama

Dr. Jason Bull is the brilliant, brash, and charming founder of a hugely successful trial consulting firm.

ab0abdb9964e490bb7794b89d7c31ac5.mkv (828.4 MB)



General
Unique ID : 53700115860375695542734446642808270659 (0x2866442021221FE604BB96755428AF43)
Complete name : ./ab0abdb9964e490bb7794b89d7c31ac5.mkv
Format : Matroska
Format version : Version 4 / Version 2
File size : 828 MiB
Duration : 43 min 40 s
Overall bit rate mode : Variable
Overall bit rate : 2 651 kb/s
Encoded date : UTC 2017-11-09 00:01:26
Writing application : mkvmerge v17.0.0 ('Be Ur Friend') 64-bit
Writing library : libebml v1.3.5 + libmatroska v1.4.8

Video
ID : 1
Format : AVC
Format/Info : Advanced Video Codec
Format profile : High@L3.1
Format settings : CABAC / 5 Ref Frames
Format settings, CABAC : Yes
Format settings, RefFrames : 5 frames
Codec ID : V_MPEG4/ISO/AVC
Duration : 43 min 40 s
Bit rate mode : Variable
Bit rate : 2 009 kb/s
Maximum bit rate : 4 500 kb/s
Width : 1 280 pixels
Height : 720 pixels
Display aspect ratio : 16:9
Frame rate mode : Constant
Frame rate : 23.976 (24000/1001) FPS
Color space : YUV
Chroma subsampling : 4:2:0
Bit depth : 8 bits
Scan type : Progressive
Bits/(Pixel*Frame) : 0.091
Stream size : 628 MiB (76%)
Default : Yes
Forced : No
Color range : Limited
Color primaries : BT.709
Transfer characteristics : BT.709
Matrix coefficients : BT.709

Audio
ID : 2
Format : E-AC-3
Format/Info : Enhanced Audio Coding 3
Format settings, Endianness : Big
Codec ID : A_EAC3
Duration : 43 min 40 s
Bit rate mode : Constant
Bit rate : 640 kb/s
Channel(s) : 6 channels
Channel positions : Front: L C R, Side: L R, LFE
Sampling rate : 48.0 kHz
Frame rate : 187.500 FPS (256 SPF)
Compression mode : Lossy
Stream size : 200 MiB (24%)
Language : English
Service kind : Complete Main
Default : Yes
Forced : No

Text
ID : 3
Format : UTF-8
Codec ID : S_TEXT/UTF8
Codec ID/Info : UTF-8 Plain Text
Duration : 43 min 22 s
Bit rate : 96 b/s
Count of elements : 988
Stream size : 30.8 KiB (0%)
Language : English
Default : No
Forced : No





Bull S02E07


Bull S02E07


Bull S02E07


Bull S02E07


Bull S02E07

All episodes