Featured TV Shows


Bull S02E07

Posted By: Tavaz
1080p (FullHD) / WEB-DL IMDb
Bull S02E07

Bull S02E07
WEB-DL | MKV | 1920x1080 | English | H264 @ 7356 kbps | E-AC-3 @ 640 kbps | 43 min 40 s | 2.44 GiB
Subtitles: English
Genre: Drama

Dr. Jason Bull is the brilliant, brash, and charming founder of a hugely successful trial consulting firm.

9fe8f75753b043b6a63c3d5444810480.mkv (2.4 GB)



General
Unique ID : 237895377691850658956066551996730487335 (0xB2F8FBAFE6F6E72FF417D75096E6B227)
Complete name : ./9fe8f75753b043b6a63c3d5444810480.mkv
Format : Matroska
Format version : Version 4 / Version 2
File size : 2.44 GiB
Duration : 43 min 40 s
Overall bit rate mode : Variable
Overall bit rate : 7 999 kb/s
Encoded date : UTC 2017-11-09 00:03:14
Writing application : mkvmerge v17.0.0 ('Be Ur Friend') 64-bit
Writing library : libebml v1.3.5 + libmatroska v1.4.8

Video
ID : 1
Format : AVC
Format/Info : Advanced Video Codec
Format profile : High@L4
Format settings : CABAC / 4 Ref Frames
Format settings, CABAC : Yes
Format settings, RefFrames : 4 frames
Codec ID : V_MPEG4/ISO/AVC
Duration : 43 min 40 s
Bit rate mode : Variable
Bit rate : 7 357 kb/s
Maximum bit rate : 15.0 Mb/s
Width : 1 920 pixels
Height : 1 080 pixels
Display aspect ratio : 16:9
Frame rate mode : Constant
Frame rate : 23.976 (24000/1001) FPS
Color space : YUV
Chroma subsampling : 4:2:0
Bit depth : 8 bits
Scan type : Progressive
Bits/(Pixel*Frame) : 0.148
Stream size : 2.24 GiB (92%)
Default : Yes
Forced : No
Color range : Limited
Color primaries : BT.709
Transfer characteristics : BT.709
Matrix coefficients : BT.709

Audio
ID : 2
Format : E-AC-3
Format/Info : Enhanced Audio Coding 3
Format settings, Endianness : Big
Codec ID : A_EAC3
Duration : 43 min 40 s
Bit rate mode : Constant
Bit rate : 640 kb/s
Channel(s) : 6 channels
Channel positions : Front: L C R, Side: L R, LFE
Sampling rate : 48.0 kHz
Frame rate : 187.500 FPS (256 SPF)
Compression mode : Lossy
Stream size : 200 MiB (8%)
Language : English
Service kind : Complete Main
Default : Yes
Forced : No

Text
ID : 3
Format : UTF-8
Codec ID : S_TEXT/UTF8
Codec ID/Info : UTF-8 Plain Text
Duration : 43 min 22 s
Bit rate : 96 b/s
Count of elements : 988
Stream size : 30.8 KiB (0%)
Language : English
Default : No
Forced : No





Bull S02E07


Bull S02E07


Bull S02E07


Bull S02E07


Bull S02E07

All episodes