Featured TV Shows


Bull S02E08

Posted By: Tavaz
1080p (FullHD) / WEB-DL IMDb
Bull S02E08

Bull S02E08
WEB-DL | MKV | 1920x1080 | English | H264 @ 8688 kbps | E-AC-3 @ 640 kbps | 43 min 28 s | 2.83 GiB
Subtitles: English
Genre: Drama

Dr. Jason Bull is the brilliant, brash, and charming founder of a hugely successful trial consulting firm.

dc057fc7850a4be498fc81804d3eed6e.mkv (2.8 GB)



General
Unique ID : 67977229390319712155463196711805587417 (0x3323F02B615655E2B20C25D861D90FD9)
Complete name : ./dc057fc7850a4be498fc81804d3eed6e.mkv
Format : Matroska
Format version : Version 4 / Version 2
File size : 2.83 GiB
Duration : 43 min 28 s
Overall bit rate mode : Variable
Overall bit rate : 9 330 kb/s
Encoded date : UTC 2017-11-15 21:34:22
Writing application : mkvmerge v17.0.0 ('Be Ur Friend') 64-bit
Writing library : libebml v1.3.5 + libmatroska v1.4.8

Video
ID : 1
Format : AVC
Format/Info : Advanced Video Codec
Format profile : High@L4
Format settings : CABAC / 4 Ref Frames
Format settings, CABAC : Yes
Format settings, RefFrames : 4 frames
Codec ID : V_MPEG4/ISO/AVC
Duration : 43 min 28 s
Bit rate mode : Variable
Bit rate : 8 688 kb/s
Maximum bit rate : 15.0 Mb/s
Width : 1 920 pixels
Height : 1 080 pixels
Display aspect ratio : 16:9
Frame rate mode : Constant
Frame rate : 23.976 (24000/1001) FPS
Color space : YUV
Chroma subsampling : 4:2:0
Bit depth : 8 bits
Scan type : Progressive
Bits/(Pixel*Frame) : 0.175
Stream size : 2.64 GiB (93%)
Default : Yes
Forced : No
Color range : Limited
Color primaries : BT.709
Transfer characteristics : BT.709
Matrix coefficients : BT.709

Audio
ID : 2
Format : E-AC-3
Format/Info : Enhanced Audio Coding 3
Format settings, Endianness : Big
Codec ID : A_EAC3
Duration : 43 min 28 s
Bit rate mode : Constant
Bit rate : 640 kb/s
Channel(s) : 6 channels
Channel positions : Front: L C R, Side: L R, LFE
Sampling rate : 48.0 kHz
Frame rate : 187.500 FPS (256 SPF)
Compression mode : Lossy
Stream size : 199 MiB (7%)
Language : English
Service kind : Complete Main
Default : Yes
Forced : No

Text
ID : 3
Format : UTF-8
Codec ID : S_TEXT/UTF8
Codec ID/Info : UTF-8 Plain Text
Duration : 42 min 52 s
Bit rate : 102 b/s
Count of elements : 1006
Stream size : 32.2 KiB (0%)
Language : English
Default : No
Forced : No





Bull S02E08


Bull S02E08


Bull S02E08


Bull S02E08


Bull S02E08

All episodes