Featured TV Shows


Bull S02E08

Posted By: Tavaz
720p (HD) / WEB-DL IMDb
Bull S02E08

Bull S02E08
WEB-DL | MKV | 1280x720 | English | H264 @ 2274 kbps | E-AC-3 @ 640 kbps | 43 min 28 s | 907 MiB
Subtitles: English
Genre: Drama

Dr. Jason Bull is the brilliant, brash, and charming founder of a hugely successful trial consulting firm.

5c0fc7e32bc74e04b6fa70f8bbbaf345.mkv (907.0 MB)



General
Unique ID : 193050358938434097598496140041614555418 (0x913C258E7C93C73F5310F6FE1B80791A)
Complete name : ./5c0fc7e32bc74e04b6fa70f8bbbaf345.mkv
Format : Matroska
Format version : Version 4 / Version 2
File size : 907 MiB
Duration : 43 min 28 s
Overall bit rate mode : Variable
Overall bit rate : 2 916 kb/s
Encoded date : UTC 2017-11-15 21:31:30
Writing application : mkvmerge v17.0.0 ('Be Ur Friend') 64-bit
Writing library : libebml v1.3.5 + libmatroska v1.4.8

Video
ID : 1
Format : AVC
Format/Info : Advanced Video Codec
Format profile : High@L3.1
Format settings : CABAC / 5 Ref Frames
Format settings, CABAC : Yes
Format settings, RefFrames : 5 frames
Codec ID : V_MPEG4/ISO/AVC
Duration : 43 min 28 s
Bit rate mode : Variable
Bit rate : 2 275 kb/s
Maximum bit rate : 4 500 kb/s
Width : 1 280 pixels
Height : 720 pixels
Display aspect ratio : 16:9
Frame rate mode : Constant
Frame rate : 23.976 (24000/1001) FPS
Color space : YUV
Chroma subsampling : 4:2:0
Bit depth : 8 bits
Scan type : Progressive
Bits/(Pixel*Frame) : 0.103
Stream size : 707 MiB (78%)
Default : Yes
Forced : No
Color range : Limited
Color primaries : BT.709
Transfer characteristics : BT.709
Matrix coefficients : BT.709

Audio
ID : 2
Format : E-AC-3
Format/Info : Enhanced Audio Coding 3
Format settings, Endianness : Big
Codec ID : A_EAC3
Duration : 43 min 28 s
Bit rate mode : Constant
Bit rate : 640 kb/s
Channel(s) : 6 channels
Channel positions : Front: L C R, Side: L R, LFE
Sampling rate : 48.0 kHz
Frame rate : 187.500 FPS (256 SPF)
Compression mode : Lossy
Stream size : 199 MiB (22%)
Language : English
Service kind : Complete Main
Default : Yes
Forced : No

Text
ID : 3
Format : UTF-8
Codec ID : S_TEXT/UTF8
Codec ID/Info : UTF-8 Plain Text
Duration : 42 min 52 s
Bit rate : 102 b/s
Count of elements : 1006
Stream size : 32.2 KiB (0%)
Language : English
Default : No
Forced : No





Bull S02E08


Bull S02E08


Bull S02E08


Bull S02E08


Bull S02E08

All episodes