Featured TV Shows


Bull S02E09

Posted By: Tavaz
1080p (FullHD) / WEB-DL IMDb
Bull S02E09

Bull S02E09
WEB-DL | MKV | 1920x1080 | English | H264 @ 8266 kbps | E-AC-3 @ 640 kbps | 43 min 31 s | 2.71 GiB
Subtitles: English
Genre: Drama

Dr. Jason Bull is the brilliant, brash, and charming founder of a hugely successful trial consulting firm.

ed77b229010e437fb7062587a080e329.mkv (2.7 GB)



General
Unique ID : 322222447635847805555403116211803287180 (0xF269C93B97BC78D16D503CDCE9A86E8C)
Complete name : ./ed77b229010e437fb7062587a080e329.mkv
Format : Matroska
Format version : Version 4 / Version 2
File size : 2.71 GiB
Duration : 43 min 31 s
Overall bit rate mode : Variable
Overall bit rate : 8 909 kb/s
Encoded date : UTC 2017-11-22 16:11:46
Writing application : mkvmerge v18.0.0 ('Apricity') 64-bit
Writing library : libebml v1.3.5 + libmatroska v1.4.8

Video
ID : 1
Format : AVC
Format/Info : Advanced Video Codec
Format profile : High@L4
Format settings : CABAC / 4 Ref Frames
Format settings, CABAC : Yes
Format settings, RefFrames : 4 frames
Codec ID : V_MPEG4/ISO/AVC
Duration : 43 min 31 s
Bit rate mode : Variable
Bit rate : 8 267 kb/s
Maximum bit rate : 15.0 Mb/s
Width : 1 920 pixels
Height : 1 080 pixels
Display aspect ratio : 16:9
Frame rate mode : Constant
Frame rate : 23.976 (24000/1001) FPS
Color space : YUV
Chroma subsampling : 4:2:0
Bit depth : 8 bits
Scan type : Progressive
Bits/(Pixel*Frame) : 0.166
Stream size : 2.51 GiB (93%)
Default : Yes
Forced : No
Color range : Limited
Color primaries : BT.709
Transfer characteristics : BT.709
Matrix coefficients : BT.709

Audio
ID : 2
Format : E-AC-3
Format/Info : Enhanced Audio Coding 3
Format settings, Endianness : Big
Codec ID : A_EAC3
Duration : 43 min 31 s
Bit rate mode : Constant
Bit rate : 640 kb/s
Channel(s) : 6 channels
Channel positions : Front: L C R, Side: L R, LFE
Sampling rate : 48.0 kHz
Frame rate : 187.500 FPS (256 SPF)
Compression mode : Lossy
Stream size : 199 MiB (7%)
Language : English
Service kind : Complete Main
Default : Yes
Forced : No

Text
ID : 3
Format : UTF-8
Codec ID : S_TEXT/UTF8
Codec ID/Info : UTF-8 Plain Text
Duration : 43 min 7 s
Bit rate : 97 b/s
Count of elements : 1022
Stream size : 30.8 KiB (0%)
Language : English
Default : No
Forced : No





Bull S02E09


Bull S02E09


Bull S02E09


Bull S02E09


Bull S02E09

All episodes