Featured TV Shows


Bull S02E11

Posted By: Tavaz
720p (HD) / WEB-DL IMDb
Bull S02E11

Bull S02E11
WEB-DL | MKV | 1280x720 | English | H264 @ 2473 kbps | E-AC-3 @ 640 kbps | 43 min 36 s | 972 MiB
Subtitles: English
Genre: Drama

Dr. Jason Bull is the brilliant, brash, and charming founder of a hugely successful trial consulting firm.

9b23ca22c50e476d8e07ec5242abc6e7.mkv (971.6 MB)



General
Unique ID : 81916852170500453027574560250951198235 (0x3DA09CA27F4A611E68D94F9C28AD661B)
Complete name : ./9b23ca22c50e476d8e07ec5242abc6e7.mkv
Format : Matroska
Format version : Version 4 / Version 2
File size : 972 MiB
Duration : 43 min 36 s
Overall bit rate mode : Variable
Overall bit rate : 3 115 kb/s
Encoded date : UTC 2018-01-03 08:36:41
Writing application : mkvmerge v19.0.0 ('Brave Captain') 64-bit
Writing library : libebml v1.3.5 + libmatroska v1.4.8

Video
ID : 1
Format : AVC
Format/Info : Advanced Video Codec
Format profile : High@L3.1
Format settings : CABAC / 5 Ref Frames
Format settings, CABAC : Yes
Format settings, RefFrames : 5 frames
Codec ID : V_MPEG4/ISO/AVC
Duration : 43 min 36 s
Bit rate mode : Variable
Bit rate : 2 473 kb/s
Maximum bit rate : 4 500 kb/s
Width : 1 280 pixels
Height : 720 pixels
Display aspect ratio : 16:9
Frame rate mode : Constant
Frame rate : 23.976 (24000/1001) FPS
Color space : YUV
Chroma subsampling : 4:2:0
Bit depth : 8 bits
Scan type : Progressive
Bits/(Pixel*Frame) : 0.112
Stream size : 771 MiB (79%)
Default : Yes
Forced : No
Color range : Limited
Color primaries : BT.709
Transfer characteristics : BT.709
Matrix coefficients : BT.709

Audio
ID : 2
Format : E-AC-3
Format/Info : Enhanced Audio Coding 3
Format settings, Endianness : Big
Codec ID : A_EAC3
Duration : 43 min 36 s
Bit rate mode : Constant
Bit rate : 640 kb/s
Channel(s) : 6 channels
Channel positions : Front: L C R, Side: L R, LFE
Sampling rate : 48.0 kHz
Frame rate : 187.500 FPS (256 SPF)
Compression mode : Lossy
Stream size : 200 MiB (21%)
Language : English
Service kind : Complete Main
Default : Yes
Forced : No

Text #1
ID : 3
Format : UTF-8
Codec ID : S_TEXT/UTF8
Codec ID/Info : UTF-8 Plain Text
Duration : 43 min 17 s
Bit rate : 96 b/s
Count of elements : 950
Stream size : 30.7 KiB (0%)
Language : English
Default : No
Forced : No

Text #2
ID : 4
Format : UTF-8
Codec ID : S_TEXT/UTF8
Codec ID/Info : UTF-8 Plain Text
Duration : 43 min 17 s
Bit rate : 99 b/s
Count of elements : 983
Stream size : 31.5 KiB (0%)
Title : SDH
Language : English
Default : No
Forced : No





Bull S02E11


Bull S02E11


Bull S02E11


Bull S02E11


Bull S02E11

All episodes