Featured TV Shows


Bull S02E12

Posted By: Tavaz
720p (HD) / WEBRip IMDb
Bull S02E12

Bull S02E12
WEBRip | MKV | 1280x720 | English | H264 @ 2329 kbps | E-AC-3 @ 640 kbps | 43 min 39 s | 928 MiB
Subtitles: English
Genre: Drama

Dr. Jason Bull is the brilliant, brash, and charming founder of a hugely successful trial consulting firm.

Bull.2016.S02E12.Grey.Areas.720p.AMZN.WEB-DL.DDP5.1.H.264-NTb.mkv (927.9 MB)



General
Unique ID : 278325200954675015604007488116435882346 (0xD1637BDF88E89A379350407A0682916A)
Complete name : ./Bull.2016.S02E12.Grey.Areas.720p.AMZN.WEB-DL.DDP5.1.H.264-NTb.mkv
Format : Matroska
Format version : Version 4 / Version 2
File size : 928 MiB
Duration : 43 min 39 s
Overall bit rate mode : Variable
Overall bit rate : 2 972 kb/s
Encoded date : UTC 2018-01-11 05:16:07
Writing application : mkvmerge v19.0.0 ('Brave Captain') 64-bit
Writing library : libebml v1.3.5 + libmatroska v1.4.8

Video
ID : 1
Format : AVC
Format/Info : Advanced Video Codec
Format profile : High@L3.1
Format settings : CABAC / 5 Ref Frames
Format settings, CABAC : Yes
Format settings, RefFrames : 5 frames
Codec ID : V_MPEG4/ISO/AVC
Duration : 43 min 39 s
Bit rate mode : Variable
Bit rate : 2 330 kb/s
Maximum bit rate : 4 500 kb/s
Width : 1 280 pixels
Height : 720 pixels
Display aspect ratio : 16:9
Frame rate mode : Constant
Frame rate : 23.976 (24000/1001) FPS
Color space : YUV
Chroma subsampling : 4:2:0
Bit depth : 8 bits
Scan type : Progressive
Bits/(Pixel*Frame) : 0.105
Stream size : 727 MiB (78%)
Default : Yes
Forced : No
Color range : Limited
Color primaries : BT.709
Transfer characteristics : BT.709
Matrix coefficients : BT.709

Audio
ID : 2
Format : E-AC-3
Format/Info : Enhanced Audio Coding 3
Format settings, Endianness : Big
Codec ID : A_EAC3
Duration : 43 min 39 s
Bit rate mode : Constant
Bit rate : 640 kb/s
Channel(s) : 6 channels
Channel positions : Front: L C R, Side: L R, LFE
Sampling rate : 48.0 kHz
Frame rate : 187.500 FPS (256 SPF)
Compression mode : Lossy
Stream size : 200 MiB (22%)
Language : English
Service kind : Complete Main
Default : Yes
Forced : No

Text #1
ID : 3
Format : UTF-8
Codec ID : S_TEXT/UTF8
Codec ID/Info : UTF-8 Plain Text
Duration : 43 min 2 s
Bit rate : 97 b/s
Count of elements : 955
Stream size : 30.7 KiB (0%)
Language : English
Default : No
Forced : No

Text #2
ID : 4
Format : UTF-8
Codec ID : S_TEXT/UTF8
Codec ID/Info : UTF-8 Plain Text
Duration : 43 min 2 s
Bit rate : 99 b/s
Count of elements : 988
Stream size : 31.5 KiB (0%)
Title : SDH
Language : English
Default : No
Forced : No





Bull S02E12


Bull S02E12


Bull S02E12


Bull S02E12


Bull S02E12

All episodes