Featured TV Shows


Bull S02E21

Posted By: Tavaz
1080p (FullHD) / HDTV IMDb
Bull S02E21

Bull S02E21
HDTV | MKV | 1920x1080 | English | H264 @ 11688 kbps | DTS @ 1509 kbps | 43 min 48 s | 4.04 GiB
Genre: Drama

Dr. Jason Bull is the brilliant, brash, and charming founder of a hugely successful trial consulting firm.

c86919838f914de5bfea1a576e616f33.mkv (4.0 GB)



General
Unique ID : 233383332335548482941025888837547781381 (0xAF93FEACF499D33A6A5ABC5F6582ED05)
Complete name : ./c86919838f914de5bfea1a576e616f33.mkv
Format : Matroska
Format version : Version 4 / Version 2
File size : 4.04 GiB
Duration : 43 min 48 s
Overall bit rate : 13.2 Mb/s
Encoded date : UTC 2018-05-01 21:15:33
Writing application : mkvmerge v8.4.0 ('A better way to fly') 64bit
Writing library : libebml v1.3.1 + libmatroska v1.4.2

Video
ID : 1
Format : AVC
Format/Info : Advanced Video Codec
Format profile : High@L4.1
Format settings : CABAC / 4 Ref Frames
Format settings, CABAC : Yes
Format settings, RefFrames : 4 frames
Codec ID : V_MPEG4/ISO/AVC
Duration : 43 min 48 s
Bit rate : 11.7 Mb/s
Width : 1 920 pixels
Height : 1 080 pixels
Display aspect ratio : 16:9
Frame rate mode : Constant
Frame rate : 23.976 (24000/1001) FPS
Color space : YUV
Chroma subsampling : 4:2:0
Bit depth : 8 bits
Scan type : Progressive
Bits/(Pixel*Frame) : 0.235
Stream size : 3.58 GiB (89%)
Writing library : x264 core 152 r2851 ba24899
Encoding settings : cabac=1 / ref=4 / deblock=1:-3:-3 / analyse=0x3:0x133 / me=umh / subme=11 / psy=1 / psy_rd=1.00:0.00 / mixed_ref=1 / me_range=32 / chroma_me=1 / trellis=2 / 8x8dct=1 / cqm=0 / deadzone=21,11 / fast_pskip=0 / chroma_qp_offset=-2 / threads=20 / lookahead_threads=2 / sliced_threads=0 / nr=0 / decimate=1 / interlaced=0 / bluray_compat=0 / constrained_intra=0 / bframes=5 / b_pyramid=2 / b_adapt=2 / b_bias=0 / direct=3 / weightb=1 / open_gop=0 / weightp=2 / keyint=250 / keyint_min=23 / scenecut=40 / intra_refresh=0 / rc_lookahead=60 / rc=crf / mbtree=1 / crf=17.0 / qcomp=0.60 / qpmin=0 / qpmax=69 / qpstep=4 / ip_ratio=1.40 / aq=1:1.00
Language : English
Default : Yes
Forced : No
Color range : Limited
Matrix coefficients : BT.709

Audio
ID : 2
Format : DTS
Format/Info : Digital Theater Systems
Mode : 16
Format settings, Endianness : Big
Codec ID : A_DTS
Duration : 43 min 48 s
Bit rate mode : Constant
Bit rate : 1 510 kb/s
Channel(s) : 6 channels
Channel positions : Front: L C R, Side: L R, LFE
Sampling rate : 48.0 kHz
Frame rate : 93.750 FPS (512 SPF)
Bit depth : 24 bits
Compression mode : Lossy
Stream size : 473 MiB (11%)
Default : Yes
Forced : No





Bull S02E21


Bull S02E21


Bull S02E21


Bull S02E21


Bull S02E21

All episodes