Featured TV Shows


Bull S03E03

Posted By: Tavaz
1080p (FullHD) / WEBRip IMDb
Bull S03E03

Bull S03E03
WEBRip | MKV | 1920x1080 | English | H264 @ 4500 kbps | AAC @ 125 kbps | 43 min 14 s | 1.39 GiB
Genre: Crime, Drama

Dr. Jason Bull is the brilliant, brash, and charming founder of a hugely successful trial consulting firm.

cd8884c4ce2146c2a64a81e17525ba60.mkv (1.4 GB)



General
Unique ID : 336286574279576650323819638153451954121 (0xFCFE703665D3747992F47414E2485FC9)
Complete name : ./cd8884c4ce2146c2a64a81e17525ba60.mkv
Format : Matroska
Format version : Version 4 / Version 2
File size : 1.39 GiB
Duration : 43 min 14 s
Overall bit rate : 4 600 kb/s
Encoded date : UTC 2018-10-09 06:05:55
Writing application : mkvmerge v24.0.0 ('Beyond The Pale') 64-bit
Writing library : libebml v1.3.6 + libmatroska v1.4.9

Video
ID : 1
Format : AVC
Format/Info : Advanced Video Codec
Format profile : High@L4
Format settings : CABAC / 4 Ref Frames
Format settings, CABAC : Yes
Format settings, RefFrames : 4 frames
Codec ID : V_MPEG4/ISO/AVC
Duration : 43 min 14 s
Bit rate : 4 500 kb/s
Width : 1 920 pixels
Height : 1 080 pixels
Display aspect ratio : 16:9
Frame rate mode : Constant
Frame rate : 23.976 (24000/1001) FPS
Color space : YUV
Chroma subsampling : 4:2:0
Bit depth : 8 bits
Scan type : Progressive
Bits/(Pixel*Frame) : 0.091
Stream size : 1.35 GiB (97%)
Writing library : x264 core 152
Encoding settings : cabac=1 / ref=4 / deblock=1:0:0 / analyse=0x3:0x113 / me=hex / subme=8 / psy=1 / psy_rd=1.00:0.00 / mixed_ref=1 / me_range=16 / chroma_me=1 / trellis=2 / 8x8dct=1 / cqm=0 / deadzone=21,11 / fast_pskip=1 / chroma_qp_offset=-2 / threads=34 / lookahead_threads=5 / sliced_threads=0 / nr=0 / decimate=1 / interlaced=0 / bluray_compat=0 / stitchable=1 / constrained_intra=0 / bframes=3 / b_pyramid=2 / b_adapt=1 / b_bias=0 / direct=3 / weightb=1 / open_gop=0 / weightp=2 / keyint=48 / keyint_min=4 / scenecut=0 / intra_refresh=0 / rc_lookahead=48 / rc=2pass / mbtree=1 / bitrate=4500 / ratetol=1.0 / qcomp=0.60 / qpmin=0 / qpmax=69 / qpstep=4 / cplxblur=20.0 / qblur=0.5 / vbv_maxrate=5400 / vbv_bufsize=4500 / nal_hrd=none / filler=0 / ip_ratio=1.40 / aq=1:1.00
Default : Yes
Forced : No

Audio
ID : 2
Format : AAC
Format/Info : Advanced Audio Codec
Format profile : LC
Codec ID : A_AAC-2
Duration : 43 min 14 s
Bit rate : 125 kb/s
Channel(s) : 2 channels
Channel positions : Front: L R
Sampling rate : 48.0 kHz
Frame rate : 46.875 FPS (1024 SPF)
Compression mode : Lossy
Delay relative to video : -83 ms
Stream size : 38.8 MiB (3%)
Default : Yes
Forced : No





Bull S03E03


Bull S03E03


Bull S03E03


Bull S03E03


Bull S03E03

All episodes