Featured TV Shows


Bull S03E08

Posted By: Tavaz
1080p (FullHD) / WEBRip IMDb
Bull S03E08

Bull S03E08
WEBRip | MKV | 1920x1080 | English | H264 @ 12034 kbps | E-AC-3 @ 640 kbps | 43 min 7 s | 3.82 GiB
Subtitles: English
Genre: Crime, Drama

Dr. Jason Bull is the brilliant, brash, and charming founder of a hugely successful trial consulting firm.

04d2e9f91baa4109ba911567847a94e2.mkv (3.8 GB)



General
Complete name : ./04d2e9f91baa4109ba911567847a94e2.mkv
Format : Matroska
Format version : Version 4 / Version 2
File size : 3.82 GiB
Duration : 43 min 7 s
Overall bit rate : 12.7 Mb/s
Encoded date : UTC 2018-11-13 07:03:03
Writing application : mkvmerge v26.0.0 ('In The Game') 64-bit
Writing library : libebml v1.3.6 + libmatroska v1.4.9

Video
ID : 1
Format : AVC
Format/Info : Advanced Video Codec
Format profile : High@L4
Format settings : CABAC / 4 Ref Frames
Format settings, CABAC : Yes
Format settings, RefFrames : 4 frames
Codec ID : V_MPEG4/ISO/AVC
Duration : 43 min 7 s
Bit rate : 12.0 Mb/s
Width : 1 920 pixels
Height : 1 080 pixels
Display aspect ratio : 16:9
Frame rate mode : Constant
Frame rate : 24.000 FPS
Color space : YUV
Chroma subsampling : 4:2:0
Bit depth : 8 bits
Scan type : Progressive
Bits/(Pixel*Frame) : 0.242
Stream size : 3.63 GiB (95%)
Default : Yes
Forced : No
Color range : Limited
Color primaries : BT.709
Transfer characteristics : BT.709
Matrix coefficients : BT.709

Audio
ID : 2
Format : E-AC-3
Format/Info : Enhanced Audio Coding 3
Format settings, Endianness : Big
Codec ID : A_EAC3
Duration : 43 min 7 s
Bit rate mode : Constant
Bit rate : 640 kb/s
Channel(s) : 6 channels
Channel positions : Front: L C R, Side: L R, LFE
Sampling rate : 48.0 kHz
Frame rate : 187.500 FPS (256 SPF)
Compression mode : Lossy
Stream size : 197 MiB (5%)
Language : English
Service kind : Complete Main
Default : Yes
Forced : No

Text
ID : 3
Format : UTF-8
Codec ID : S_TEXT/UTF8
Codec ID/Info : UTF-8 Plain Text
Duration : 42 min 32 s
Bit rate : 99 b/s
Count of elements : 951
Stream size : 31.0 KiB (0%)
Title : English SDH
Language : English
Default : No
Forced : No





Bull S03E08


Bull S03E08


Bull S03E08


Bull S03E08


Bull S03E08

All episodes