Featured TV Shows


Bull S03E09

Posted By: Tavaz
1080p (FullHD) / WEBRip IMDb
Bull S03E09

Bull S03E09
WEBRip | MKV | 1920x1080 | English | H264 @ 12265 kbps | E-AC-3 @ 640 kbps | 42 min 24 s | 3.82 GiB
Subtitles: English
Genre: Crime, Drama

Dr. Jason Bull is the brilliant, brash, and charming founder of a hugely successful trial consulting firm.

d055c00c7bd3465aa5a847ff2eb307cc.mkv (3.8 GB)



General
Unique ID : 16488337746504860973297111525942911179 (0xC6789D0A50F194E0EAF8DA6331460CB)
Complete name : ./d055c00c7bd3465aa5a847ff2eb307cc.mkv
Format : Matroska
Format version : Version 4 / Version 2
File size : 3.82 GiB
Duration : 42 min 24 s
Overall bit rate : 12.9 Mb/s
Encoded date : UTC 2018-12-04 07:01:15
Writing application : mkvmerge v28.2.0 ('The Awakening') 64-bit
Writing library : libebml v1.3.6 + libmatroska v1.4.9

Video
ID : 1
Format : AVC
Format/Info : Advanced Video Codec
Format profile : High@L4
Format settings : CABAC / 4 Ref Frames
Format settings, CABAC : Yes
Format settings, RefFrames : 4 frames
Codec ID : V_MPEG4/ISO/AVC
Duration : 42 min 24 s
Bit rate : 12.3 Mb/s
Width : 1 920 pixels
Height : 1 080 pixels
Display aspect ratio : 16:9
Frame rate mode : Constant
Frame rate : 24.000 FPS
Color space : YUV
Chroma subsampling : 4:2:0
Bit depth : 8 bits
Scan type : Progressive
Bits/(Pixel*Frame) : 0.246
Stream size : 3.63 GiB (95%)
Language : English
Default : Yes
Forced : No
Color range : Limited
Color primaries : BT.709
Transfer characteristics : BT.709
Matrix coefficients : BT.709

Audio
ID : 2
Format : E-AC-3
Format/Info : Enhanced Audio Coding 3
Format settings, Endianness : Big
Codec ID : A_EAC3
Duration : 42 min 24 s
Bit rate mode : Constant
Bit rate : 640 kb/s
Channel(s) : 6 channels
Channel positions : Front: L C R, Side: L R, LFE
Sampling rate : 48.0 kHz
Frame rate : 187.500 FPS (256 SPF)
Compression mode : Lossy
Stream size : 194 MiB (5%)
Language : English
Service kind : Complete Main
Default : Yes
Forced : No

Text
ID : 3
Format : UTF-8
Codec ID : S_TEXT/UTF8
Codec ID/Info : UTF-8 Plain Text
Duration : 41 min 56 s
Bit rate : 96 b/s
Count of elements : 910
Stream size : 29.7 KiB (0%)
Title : English
Language : English
Default : No
Forced : No





Bull S03E09


Bull S03E09


Bull S03E09


Bull S03E09


Bull S03E09

All episodes