Featured TV Shows


Bull S03E10

Posted By: Tavaz
1080p (FullHD) / WEBRip IMDb
Bull S03E10

Bull S03E10
WEBRip | MKV | 1920x1080 | English | H264 @ 12653 kbps | E-AC-3 @ 640 kbps | 42 min 59 s | 3.99 GiB
Subtitles: English
Genre: Crime, Drama

Dr. Jason Bull is the brilliant, brash, and charming founder of a hugely successful trial consulting firm.

46a4df38f1184117ac1d35dd63595b64.mkv (4.0 GB)



General
Unique ID : 116510969599216689263347779874033089905 (0x57A7324F23B33F1171E4E7EC0021BD71)
Complete name : ./46a4df38f1184117ac1d35dd63595b64.mkv
Format : Matroska
Format version : Version 4 / Version 2
File size : 3.99 GiB
Duration : 42 min 59 s
Overall bit rate : 13.3 Mb/s
Encoded date : UTC 2018-12-11 07:01:12
Writing application : mkvmerge v28.2.0 ('The Awakening') 64-bit
Writing library : libebml v1.3.6 + libmatroska v1.4.9

Video
ID : 1
Format : AVC
Format/Info : Advanced Video Codec
Format profile : High@L4
Format settings : CABAC / 4 Ref Frames
Format settings, CABAC : Yes
Format settings, RefFrames : 4 frames
Codec ID : V_MPEG4/ISO/AVC
Duration : 42 min 59 s
Bit rate : 12.7 Mb/s
Width : 1 920 pixels
Height : 1 080 pixels
Display aspect ratio : 16:9
Frame rate mode : Constant
Frame rate : 24.000 FPS
Color space : YUV
Chroma subsampling : 4:2:0
Bit depth : 8 bits
Scan type : Progressive
Bits/(Pixel*Frame) : 0.254
Stream size : 3.80 GiB (95%)
Language : English
Default : Yes
Forced : No
Color range : Limited
Color primaries : BT.709
Transfer characteristics : BT.709
Matrix coefficients : BT.709

Audio
ID : 2
Format : E-AC-3
Format/Info : Enhanced Audio Coding 3
Format settings, Endianness : Big
Codec ID : A_EAC3
Duration : 42 min 59 s
Bit rate mode : Constant
Bit rate : 640 kb/s
Channel(s) : 6 channels
Channel positions : Front: L C R, Side: L R, LFE
Sampling rate : 48.0 kHz
Frame rate : 187.500 FPS (256 SPF)
Compression mode : Lossy
Stream size : 197 MiB (5%)
Language : English
Service kind : Complete Main
Default : Yes
Forced : No

Text
ID : 3
Format : UTF-8
Codec ID : S_TEXT/UTF8
Codec ID/Info : UTF-8 Plain Text
Duration : 42 min 25 s
Bit rate : 92 b/s
Count of elements : 885
Stream size : 28.6 KiB (0%)
Title : English
Language : English
Default : No
Forced : No





Bull S03E10


Bull S03E10


Bull S03E10


Bull S03E10


Bull S03E10

All episodes