Featured TV Shows


Bull S03E10

Posted By: Tavaz
SD / HDTV IMDb
Bull S03E10

Bull S03E10
HDTV | MKV | 720x404 | German | H264 @ 522 kbps | AC-3 @ 192 kbps | 41 min 0 s | 210 MiB
Genre: Krimi, Drama


Dr. Jason Bull betreibt Trial Sciences Inc., eine enorm erfolgreiche Beraterfirma, die sich auf die Beratung von Angeklagten bei Geschworenenverfahren spezialisiert hat. Dabei geht es aber nicht um Rechtsberatung im eigentlichen Sinn. Vielmehr bezieht sich die Dienstleistung darauf, wie man die Geschworenen mit diversen Tricks auf seine Seite zieht.

Bu S03E010.mkv (209.9 MB)



General
Unique ID : 282655427261531824360799306123977425439 (0xD4A57483714FA6FA8AD3C1238518021F)
Complete name : ./Bu lluB S03E10 German/Bu S03E010.mkv
Format : Matroska
Format version : Version 4 / Version 2
File size : 210 MiB
Duration : 41 min 0 s
Overall bit rate : 716 kb/s
Encoded date : UTC 2019-04-19 20:30:11
Writing application : mkvmerge v31.0.0 ('Dolores In A Shoestand') 64-bit
Writing library : libebml v1.3.6 + libmatroska v1.4.9

Video
ID : 1
Format : AVC
Format/Info : Advanced Video Codec
Format profile : High@L3.1
Format settings : CABAC / 5 Ref Frames
Format settings, CABAC : Yes
Format settings, RefFrames : 5 frames
Codec ID : V_MPEG4/ISO/AVC
Duration : 41 min 0 s
Bit rate : 522 kb/s
Width : 720 pixels
Height : 404 pixels
Display aspect ratio : 16:9
Frame rate mode : Constant
Frame rate : 25.000 FPS
Color space : YUV
Chroma subsampling : 4:2:0
Bit depth : 8 bits
Scan type : Progressive
Bits/(Pixel*Frame) : 0.072
Stream size : 153 MiB (73%)
Writing library : x264 core 157 r2969 d4099dd
Encoding settings : cabac=1 / ref=5 / deblock=1:0:0 / analyse=0x3:0x113 / me=hex / subme=8 / psy=1 / psy_rd=1.00:0.00 / mixed_ref=1 / me_range=16 / chroma_me=1 / trellis=2 / 8x8dct=1 / cqm=0 / deadzone=21,11 / fast_pskip=0 / chroma_qp_offset=-2 / threads=32 / lookahead_threads=3 / sliced_threads=0 / nr=0 / decimate=1 / interlaced=0 / bluray_compat=0 / constrained_intra=0 / bframes=3 / b_pyramid=2 / b_adapt=1 / b_bias=0 / direct=3 / weightb=1 / open_gop=0 / weightp=2 / keyint=250 / keyint_min=25 / scenecut=40 / intra_refresh=0 / rc_lookahead=50 / rc=crf / mbtree=1 / crf=19.0 / qcomp=0.60 / qpmin=0 / qpmax=69 / qpstep=4 / ip_ratio=1.40 / aq=1:1.00
Default : Yes
Forced : No

Audio
ID : 2
Format : AC-3
Format/Info : Audio Coding 3
Format settings, Endianness : Big
Codec ID : A_AC3
Duration : 40 min 59 s
Bit rate mode : Constant
Bit rate : 192 kb/s
Channel(s) : 2 channels
Channel positions : Front: L R
Sampling rate : 48.0 kHz
Frame rate : 31.250 FPS (1536 SPF)
Bit depth : 16 bits
Compression mode : Lossy
Stream size : 56.3 MiB (27%)
Language : German
Service kind : Complete Main
Default : Yes
Forced : No





Bull S03E10


Bull S03E10


Bull S03E10


Bull S03E10


Bull S03E10

All episodes