Featured TV Shows


Bull S03E14

Posted By: Tavaz
1080p (FullHD) / WEB-DL IMDb
Bull S03E14

Bull S03E14
WEB-DL | MKV | 1920x1080 | English | H264 @ 11840 kbps | E-AC-3 @ 640 kbps | 42 min 35 s | 3.71 GiB
Subtitles: English
Genre: Crime, Dramma

La serie segue i dipendenti della Trial Analysis Corporation (TAC), una società di consulenza che analizza i giurati di un processo. La società è guidata dallo psicologo ed esperto in scienze forensi Jason Bull, che insieme alla sua squadra, usa le sue abilità per selezionare ed analizzare i giurati migliori per i suoi clienti, aiutando gli avvocati difensori ad elaborare strategie di difesa vincenti.

a6af6c987a8444e9a7dfee205dc8e6b3.mkv (3.7 GB)



General
Unique ID : 310735166812507798102656893730392273265 (0xE9C56A8F9C896FBDF7C21C87F2CE7171)
Complete name : ./a6af6c987a8444e9a7dfee205dc8e6b3.mkv
Format : Matroska
Format version : Version 4 / Version 2
File size : 3.71 GiB
Duration : 42 min 35 s
Overall bit rate : 12.5 Mb/s
Encoded date : UTC 2019-02-12 07:07:08
Writing application : mkvmerge v23.0.0 ('The Bride Said No') 64-bit
Writing library : libebml v1.3.6 + libmatroska v1.4.9

Video
ID : 1
Format : AVC
Format/Info : Advanced Video Codec
Format profile : High@L4
Format settings : CABAC / 4 Ref Frames
Format settings, CABAC : Yes
Format settings, RefFrames : 4 frames
Codec ID : V_MPEG4/ISO/AVC
Duration : 42 min 35 s
Bit rate : 11.8 Mb/s
Width : 1 920 pixels
Height : 1 080 pixels
Display aspect ratio : 16:9
Frame rate mode : Constant
Frame rate : 24.000 FPS
Color space : YUV
Chroma subsampling : 4:2:0
Bit depth : 8 bits
Scan type : Progressive
Bits/(Pixel*Frame) : 0.238
Stream size : 3.52 GiB (95%)
Default : Yes
Forced : No
Color range : Limited
Color primaries : BT.709
Transfer characteristics : BT.709
Matrix coefficients : BT.709

Audio
ID : 2
Format : E-AC-3
Format/Info : Enhanced Audio Coding 3
Format settings, Endianness : Big
Codec ID : A_EAC3
Duration : 42 min 35 s
Bit rate mode : Constant
Bit rate : 640 kb/s
Channel(s) : 6 channels
Channel positions : Front: L C R, Side: L R, LFE
Sampling rate : 48.0 kHz
Frame rate : 187.500 FPS (256 SPF)
Compression mode : Lossy
Stream size : 195 MiB (5%)
Language : English
Service kind : Complete Main
Default : Yes
Forced : No

Text
ID : 3
Format : UTF-8
Codec ID : S_TEXT/UTF8
Codec ID/Info : UTF-8 Plain Text
Duration : 41 min 55 s
Bit rate : 96 b/s
Count of elements : 965
Stream size : 29.8 KiB (0%)
Title : SDH
Language : English
Default : No
Forced : No





Bull S03E14


Bull S03E14


Bull S03E14


Bull S03E14


Bull S03E14

All episodes