Featured TV Shows


Bull S03E16

Posted By: Tavaz
Bull S03E16

Bull S03E16

Dr. Jason Bull is the brilliant, brash, and charming founder of a hugely successful trial consulting firm.

cc74e899d7cc4793b0131c728a7699e9.avi (296.0 MB)



General
Complete name : ./cc74e899d7cc4793b0131c728a7699e9.avi
Format : AVI
Format/Info : Audio Video Interleave
File size : 296 MiB
Duration : 42 min 12 s
Overall bit rate : 980 kb/s
Writing application : Lavf57.81.100

Video
ID : 0
Format : xvid
Codec ID : xvid
Duration : 42 min 12 s
Bit rate : 840 kb/s
Width : 640 pixels
Height : 360 pixels
Display aspect ratio : 16:9
Frame rate : 23.976 (24000/1001) FPS
Scan type : Progressive
Bits/(Pixel*Frame) : 0.152
Stream size : 253 MiB (86%)

Audio
ID : 1
Format : MPEG Audio
Format version : Version 1
Format profile : Layer 3
Format settings : Joint stereo / MS Stereo
Mode : Joint stereo
Mode extension : MS Stereo
Codec ID : 55
Codec ID/Hint : MP3
Duration : 42 min 12 s
Bit rate mode : Constant
Bit rate : 128 kb/s
Channel(s) : 2 channels
Sampling rate : 48.0 kHz
Compression mode : Lossy
Stream size : 38.6 MiB (13%)
Alignment : Aligned on interleaves
Interleave, duration : 24 ms (0.58 video frame)
Interleave, preload duration : 24 ms





Bull S03E16


Bull S03E16


Bull S03E16


Bull S03E16


Bull S03E16

All episodes