Featured TV Shows


Bull S03E19

Posted By: Tavaz
720p (HD) / HDTV IMDb
Bull S03E19

Bull S03E19
WEB-DL | MKV | 1280x720 | German / English | H264 @ 1752 kbps | AC-3 @ 384 kbps | 38 min 49 s | 647 MiB
Genre: Krimi, Drama


Dr. Jason Bull betreibt Trial Sciences Inc., eine enorm erfolgreiche Beraterfirma, die sich auf die Beratung von Angeklagten bei Geschworenenverfahren spezialisiert hat. Dabei geht es aber nicht um Rechtsberatung im eigentlichen Sinn. Vielmehr bezieht sich die Dienstleistung darauf, wie man die Geschworenen mit diversen Tricks auf seine Seite zieht.

mdgp-bull2016s03e19-720p.mkv (647.2 MB)



General
Unique ID : 299407208142523257198018458532998133451 (0xE13FBB13EB8C3E471465F4B2AF65B6CB)
Complete name : ./mdgp-bull2016s03e19-720p.mkv
Format : Matroska
Format version : Version 2
File size : 647 MiB
Duration : 38 min 49 s
Overall bit rate : 2 330 kb/s
Encoded date : UTC 2019-06-22 04:36:33
Writing application : mkvmerge v31.0.0 ('Dolores In A Shoestand') 64-bit
Writing library : libebml v1.3.6 + libmatroska v1.4.9

Video
ID : 1
Format : AVC
Format/Info : Advanced Video Codec
Format profile : High@L4.1
Format settings : CABAC / 5 Ref Frames
Format settings, CABAC : Yes
Format settings, RefFrames : 5 frames
Codec ID : V_MPEG4/ISO/AVC
Duration : 38 min 49 s
Bit rate : 1 752 kb/s
Width : 1 280 pixels
Height : 720 pixels
Display aspect ratio : 16:9
Frame rate mode : Constant
Frame rate : 25.000 FPS
Color space : YUV
Chroma subsampling : 4:2:0
Bit depth : 8 bits
Scan type : Progressive
Bits/(Pixel*Frame) : 0.076
Stream size : 487 MiB (75%)
Writing library : x264 core 157 r2969 d4099dd
Encoding settings : cabac=1 / ref=5 / deblock=1:-3:-3 / analyse=0x3:0x113 / me=umh / subme=7 / psy=1 / psy_rd=1.00:0.00 / mixed_ref=1 / me_range=16 / chroma_me=1 / trellis=1 / 8x8dct=1 / cqm=0 / deadzone=21,11 / fast_pskip=0 / chroma_qp_offset=-2 / threads=24 / lookahead_threads=4 / sliced_threads=0 / nr=0 / decimate=1 / interlaced=0 / bluray_compat=0 / constrained_intra=0 / bframes=3 / b_pyramid=2 / b_adapt=1 / b_bias=0 / direct=1 / weightb=1 / open_gop=0 / weightp=2 / keyint=250 / keyint_min=25 / scenecut=40 / intra_refresh=0 / rc_lookahead=40 / rc=crf / mbtree=1 / crf=19.0 / qcomp=0.60 / qpmin=0 / qpmax=69 / qpstep=4 / ip_ratio=1.40 / aq=1:1.00
Default : Yes
Forced : No

Audio #1
ID : 2
Format : AC-3
Format/Info : Audio Coding 3
Format settings, Endianness : Big
Codec ID : A_AC3
Duration : 38 min 49 s
Bit rate mode : Constant
Bit rate : 384 kb/s
Channel(s) : 6 channels
Channel positions : Front: L C R, Side: L R, LFE
Sampling rate : 48.0 kHz
Frame rate : 31.250 FPS (1536 SPF)
Bit depth : 16 bits
Compression mode : Lossy
Stream size : 107 MiB (16%)
Language : German
Service kind : Complete Main
Default : Yes
Forced : No

Audio #2
ID : 3
Format : AC-3
Format/Info : Audio Coding 3
Format settings, Endianness : Big
Codec ID : A_AC3
Duration : 38 min 49 s
Bit rate mode : Constant
Bit rate : 192 kb/s
Channel(s) : 2 channels
Channel positions : Front: L R
Sampling rate : 48.0 kHz
Frame rate : 31.250 FPS (1536 SPF)
Bit depth : 16 bits
Compression mode : Lossy
Stream size : 53.3 MiB (8%)
Language : English
Service kind : Complete Main
Default : No
Forced : No





Bull S03E19


Bull S03E19


Bull S03E19


Bull S03E19


Bull S03E19

All episodes