Featured TV Shows


Bull S03E20

Posted By: Tavaz
1080p (FullHD) / WEBRip IMDb
Bull S03E20

Bull S03E20
WEBRip | MKV | 1920x1080 | English | H264 @ 9999 kbps | E-AC-3 @ 256 kbps | 43 min 13 s | 3.05 GiB
Subtitles: English
Genre: Crime, Drama


Dr. Jason Bull is the brilliant, brash, and charming founder of a hugely successful trial consulting firm.

Bull.2016.S03E20.1080p.WEB.H264-AMCON.mkv (3.1 GB)



General
Unique ID : 172833621005830397900706907190085554186 (0x82068B6B82309EA292C062F291E8100A)
Complete name : ./Bull.2016.S03E20.1080p.WEB.H264-AMCON.mkv
Format : Matroska
Format version : Version 4 / Version 2
File size : 3.05 GiB
Duration : 43 min 13 s
Overall bit rate : 10.1 Mb/s
Encoded date : UTC 2019-04-30 06:00:55
Writing application : mkvmerge v33.1.0 ('Primrose') 64-bit
Writing library : libebml v1.3.7 + libmatroska v1.5.0

Video
ID : 1
Format : AVC
Format/Info : Advanced Video Codec
Format profile : High@L4
Format settings : CABAC / 4 Ref Frames
Format settings, CABAC : Yes
Format settings, RefFrames : 4 frames
Format settings, GOP : M=4, N=48
Codec ID : V_MPEG4/ISO/AVC
Duration : 43 min 13 s
Bit rate mode : Constant
Bit rate : 10 000 kb/s
Width : 1 920 pixels
Height : 1 080 pixels
Display aspect ratio : 16:9
Frame rate mode : Constant
Frame rate : 23.976 (24000/1001) FPS
Color space : YUV
Chroma subsampling : 4:2:0
Bit depth : 8 bits
Scan type : Progressive
Bits/(Pixel*Frame) : 0.201
Stream size : 2.97 GiB (97%)
Language : English
Default : Yes
Forced : No
Color range : Limited
Color primaries : BT.709
Transfer characteristics : BT.709
Matrix coefficients : BT.709

Audio
ID : 2
Format : E-AC-3
Format/Info : Enhanced Audio Coding 3
Format settings, Endianness : Big
Codec ID : A_EAC3
Duration : 43 min 13 s
Bit rate mode : Constant
Bit rate : 256 kb/s
Channel(s) : 6 channels
Channel positions : Front: L C R, Side: L R, LFE
Sampling rate : 48.0 kHz
Frame rate : 187.500 FPS (256 SPF)
Compression mode : Lossy
Stream size : 79.2 MiB (3%)
Language : English
Service kind : Complete Main
Default : Yes
Forced : No

Text
ID : 3
Format : UTF-8
Codec ID : S_TEXT/UTF8
Codec ID/Info : UTF-8 Plain Text
Duration : 42 min 46 s
Bit rate : 95 b/s
Count of elements : 910
Stream size : 30.0 KiB (0%)
Title : English
Language : English
Default : No
Forced : No





Bull S03E20


Bull S03E20


Bull S03E20


Bull S03E20


Bull S03E20

All episodes