Featured TV Shows


Bull S04E01

Posted By: Tavaz
1080p (FullHD) / WEBRip IMDb
Bull S04E01

Bull S04E01
WEBRip | MKV | 1920x1080 | English | H264 @ 10525 kbps | E-AC-3 @ 640 kbps | 43 min 10 s | 3.37 GiB
Subtitles: English
Genre: Crime, Drama


Dr. Jason Bull is the brilliant, brash, and charming founder of a hugely successful trial consulting firm.

e76a2f51c5304ad08d9a202a60a8a50d.mkv (3.4 GB)



General
Unique ID : 294343112344099425934913879977169735139 (0xDD706BE0CA14CE05429220F1A0034DE3)
Complete name : ./e76a2f51c5304ad08d9a202a60a8a50d.mkv
Format : Matroska
Format version : Version 4 / Version 2
File size : 3.37 GiB
Duration : 43 min 10 s
Overall bit rate : 11.2 Mb/s
Encoded date : UTC 2019-09-24 06:01:08
Writing application : mkvmerge v33.1.0 ('Primrose') 64-bit
Writing library : libebml v1.3.7 + libmatroska v1.5.0

Video
ID : 1
Format : AVC
Format/Info : Advanced Video Codec
Format profile : High@L4
Format settings : CABAC / 4 Ref Frames
Format settings, CABAC : Yes
Format settings, RefFrames : 4 frames
Codec ID : V_MPEG4/ISO/AVC
Duration : 43 min 10 s
Bit rate : 10.5 Mb/s
Width : 1 920 pixels
Height : 1 080 pixels
Display aspect ratio : 16:9
Frame rate mode : Constant
Frame rate : 24.000 FPS
Color space : YUV
Chroma subsampling : 4:2:0
Bit depth : 8 bits
Scan type : Progressive
Bits/(Pixel*Frame) : 0.211
Stream size : 3.17 GiB (94%)
Language : English
Default : Yes
Forced : No
Color range : Limited
Color primaries : BT.709
Transfer characteristics : BT.709
Matrix coefficients : BT.709

Audio
ID : 2
Format : E-AC-3
Format/Info : Enhanced Audio Coding 3
Format settings, Endianness : Big
Codec ID : A_EAC3
Duration : 43 min 10 s
Bit rate mode : Constant
Bit rate : 640 kb/s
Channel(s) : 6 channels
Channel positions : Front: L C R, Side: L R, LFE
Sampling rate : 48.0 kHz
Frame rate : 187.500 FPS (256 SPF)
Compression mode : Lossy
Stream size : 198 MiB (6%)
Language : English
Service kind : Complete Main
Default : Yes
Forced : No

Text
ID : 3
Format : UTF-8
Codec ID : S_TEXT/UTF8
Codec ID/Info : UTF-8 Plain Text
Duration : 42 min 31 s
Bit rate : 95 b/s
Count of elements : 916
Stream size : 29.8 KiB (0%)
Title : English
Language : English
Default : No
Forced : No





Bull S04E01


Bull S04E01


Bull S04E01


Bull S04E01


Bull S04E01

All episodes