Featured TV Shows


Bull S04E04

Posted By: Tavaz
1080p (FullHD) / WEBRip IMDb
Bull S04E04

Bull S04E04
WEBRip | MKV | 1920x1080 | English | H264 @ 10276 kbps | E-AC-3 @ 640 kbps | 42 min 35 s | 3.25 GiB
Subtitles: English
Genre: Crime, Drama


Dr. Jason Bull is the brilliant, brash, and charming founder of a hugely successful trial consulting firm.

103ecadfedd049179596a2ef747a6534.mkv (3.2 GB)



General
Unique ID : 258004171766424645815850033817498631869 (0xC219CBC7D8EBB4F0A50E2C4E438F3EBD)
Complete name : ./103ecadfedd049179596a2ef747a6534.mkv
Format : Matroska
Format version : Version 4 / Version 2
File size : 3.25 GiB
Duration : 42 min 35 s
Overall bit rate : 10.9 Mb/s
Encoded date : UTC 2019-10-15 06:00:53
Writing application : mkvmerge v38.0.0 ('The Silent Type') 64-bit
Writing library : libebml v1.3.9 + libmatroska v1.5.2

Video
ID : 1
Format : AVC
Format/Info : Advanced Video Codec
Format profile : High@L4
Format settings : CABAC / 4 Ref Frames
Format settings, CABAC : Yes
Format settings, RefFrames : 4 frames
Codec ID : V_MPEG4/ISO/AVC
Duration : 42 min 35 s
Bit rate : 10.3 Mb/s
Width : 1 920 pixels
Height : 1 080 pixels
Display aspect ratio : 16:9
Frame rate mode : Constant
Frame rate : 24.000 FPS
Color space : YUV
Chroma subsampling : 4:2:0
Bit depth : 8 bits
Scan type : Progressive
Bits/(Pixel*Frame) : 0.207
Stream size : 3.06 GiB (94%)
Language : English
Default : Yes
Forced : No
Color range : Limited
Color primaries : BT.709
Transfer characteristics : BT.709
Matrix coefficients : BT.709

Audio
ID : 2
Format : E-AC-3
Format/Info : Enhanced Audio Coding 3
Format settings, Endianness : Big
Codec ID : A_EAC3
Duration : 42 min 35 s
Bit rate mode : Constant
Bit rate : 640 kb/s
Channel(s) : 6 channels
Channel positions : Front: L C R, Side: L R, LFE
Sampling rate : 48.0 kHz
Frame rate : 187.500 FPS (256 SPF)
Compression mode : Lossy
Stream size : 195 MiB (6%)
Language : English
Service kind : Complete Main
Default : Yes
Forced : No

Text
ID : 3
Format : UTF-8
Codec ID : S_TEXT/UTF8
Codec ID/Info : UTF-8 Plain Text
Duration : 41 min 49 s
Bit rate : 98 b/s
Count of elements : 969
Stream size : 30.2 KiB (0%)
Title : English
Language : English
Default : No
Forced : No





Bull S04E04


Bull S04E04


Bull S04E04


Bull S04E04


Bull S04E04

All episodes