Featured TV Shows


Bull S04E05

Posted By: Tavaz
1080p (FullHD) / WEBRip IMDb
Bull S04E05

Bull S04E05
WEBRip | MKV | 1920x1080 | English | H264 @ 5229 kbps | E-AC-3 @ 256 kbps | 43 min 6 s | 1.65 GiB
Subtitles: English
Genre: Crime, Drama


Dr. Jason Bull is the brilliant, brash, and charming founder of a hugely successful trial consulting firm.

ee6ce72e7adc46bb828f8f903d41f695.mkv (1.7 GB)



General
Unique ID : 224986233464131608056315514664782723378 (0xA942C5BCAF3AE08E4C9144DDF8ACF932)
Complete name : ./ee6ce72e7adc46bb828f8f903d41f695.mkv
Format : Matroska
Format version : Version 4 / Version 2
File size : 1.65 GiB
Duration : 43 min 6 s
Overall bit rate : 5 487 kb/s
Encoded date : UTC 2019-10-22 02:04:24
Writing application : mkvmerge v36.0.0 ('Is That Jazz?') 64-bit
Writing library : libebml v1.3.9 + libmatroska v1.5.2

Video
ID : 1
Format : AVC
Format/Info : Advanced Video Codec
Format profile : High@L4
Format settings : CABAC / 4 Ref Frames
Format settings, CABAC : Yes
Format settings, RefFrames : 4 frames
Codec ID : V_MPEG4/ISO/AVC
Duration : 43 min 6 s
Bit rate : 5 229 kb/s
Width : 1 920 pixels
Height : 1 080 pixels
Display aspect ratio : 16:9
Frame rate mode : Constant
Frame rate : 23.976 (24000/1001) FPS
Color space : YUV
Chroma subsampling : 4:2:0
Bit depth : 8 bits
Scan type : Progressive
Bits/(Pixel*Frame) : 0.105
Stream size : 1.57 GiB (95%)
Default : Yes
Forced : No

Audio
ID : 2
Format : E-AC-3
Format/Info : Enhanced Audio Coding 3
Format settings, Endianness : Big
Codec ID : A_EAC3
Duration : 43 min 6 s
Bit rate mode : Constant
Bit rate : 256 kb/s
Channel(s) : 6 channels
Channel positions : Front: L C R, Side: L R, LFE
Sampling rate : 48.0 kHz
Frame rate : 187.500 FPS (256 SPF)
Compression mode : Lossy
Stream size : 78.9 MiB (5%)
Service kind : Complete Main
Default : Yes
Forced : No

Text
ID : 3
Format : UTF-8
Codec ID : S_TEXT/UTF8
Codec ID/Info : UTF-8 Plain Text
Duration : 42 min 23 s
Bit rate : 97 b/s
Count of elements : 824
Stream size : 30.3 KiB (0%)
Language : English
Default : No
Forced : No





Bull S04E05


Bull S04E05


Bull S04E05


Bull S04E05


Bull S04E05

All episodes