Featured TV Shows


Bull S04E07

Posted By: Tavaz
1080p (FullHD) / WEBRip IMDb
Bull S04E07

Bull S04E07
WEBRip | MKV | 1920x1080 | English | H264 @ 9777 kbps | E-AC-3 @ 640 kbps | 42 min 44 s | 3.11 GiB
Subtitles: English
Genre: Crime, Drama


Dr. Jason Bull is the brilliant, brash, and charming founder of a hugely successful trial consulting firm.

9a3c9edbeac143e7b53d9620ad6ac707.mkv (3.1 GB)



General
Unique ID : 168331997823622226448468645604064947111 (0x7EA39042E492C1339491F0A96216EBA7)
Complete name : ./9a3c9edbeac143e7b53d9620ad6ac707.mkv
Format : Matroska
Format version : Version 4 / Version 2
File size : 3.11 GiB
Duration : 42 min 44 s
Overall bit rate : 10.4 Mb/s
Encoded date : UTC 2019-11-05 07:01:08
Writing application : mkvmerge v38.0.0 ('The Silent Type') 64-bit
Writing library : libebml v1.3.9 + libmatroska v1.5.2

Video
ID : 1
Format : AVC
Format/Info : Advanced Video Codec
Format profile : High@L4
Format settings : CABAC / 4 Ref Frames
Format settings, CABAC : Yes
Format settings, RefFrames : 4 frames
Codec ID : V_MPEG4/ISO/AVC
Duration : 42 min 44 s
Bit rate : 9 777 kb/s
Width : 1 920 pixels
Height : 1 080 pixels
Display aspect ratio : 16:9
Frame rate mode : Constant
Frame rate : 24.000 FPS
Color space : YUV
Chroma subsampling : 4:2:0
Bit depth : 8 bits
Scan type : Progressive
Bits/(Pixel*Frame) : 0.196
Stream size : 2.92 GiB (94%)
Language : English
Default : Yes
Forced : No
Color range : Limited
Color primaries : BT.709
Transfer characteristics : BT.709
Matrix coefficients : BT.709

Audio
ID : 2
Format : E-AC-3
Format/Info : Enhanced Audio Coding 3
Format settings, Endianness : Big
Codec ID : A_EAC3
Duration : 42 min 44 s
Bit rate mode : Constant
Bit rate : 640 kb/s
Channel(s) : 6 channels
Channel positions : Front: L C R, Side: L R, LFE
Sampling rate : 48.0 kHz
Frame rate : 187.500 FPS (256 SPF)
Compression mode : Lossy
Stream size : 196 MiB (6%)
Language : English
Service kind : Complete Main
Default : Yes
Forced : No

Text
ID : 3
Format : UTF-8
Codec ID : S_TEXT/UTF8
Codec ID/Info : UTF-8 Plain Text
Duration : 42 min 2 s
Bit rate : 97 b/s
Count of elements : 975
Stream size : 30.0 KiB (0%)
Title : English
Language : English
Default : No
Forced : No





Bull S04E07


Bull S04E07


Bull S04E07


Bull S04E07


Bull S04E07

All episodes