Featured TV Shows


Bull S04E20

Posted By: Tavaz
1080p (FullHD) / WEB-DL IMDb
Bull S04E20

Bull S04E20
WEB-DL | MKV | 1920x1080 | English | H264 @ 10973 kbps | E-AC-3 @ 640 kbps | 43 min 2 s | 3.49 GiB
Subtitles: English
Genre: Crime, Drama


Dr. Jason Bull is the brilliant, brash, and charming founder of a hugely successful trial consulting firm.

27807f47372a4833b25eb056fd32369f.mkv (3.5 GB)



General
Unique ID : 220143295013075829929692893067091245309 (0xA59E0E6FB7B5F294D115A442DC51F8FD)
Complete name : ./27807f47372a4833b25eb056fd32369f.mkv
Format : Matroska
Format version : Version 4 / Version 2
File size : 3.49 GiB
Duration : 43 min 2 s
Overall bit rate : 11.6 Mb/s
Encoded date : UTC 2020-05-05 07:47:25
Writing application : mkvmerge v23.0.0 ('The Bride Said No') 64-bit
Writing library : libebml v1.3.6 + libmatroska v1.4.9

Video
ID : 1
Format : AVC
Format/Info : Advanced Video Codec
Format profile : High@L4
Format settings : CABAC / 4 Ref Frames
Format settings, CABAC : Yes
Format settings, RefFrames : 4 frames
Codec ID : V_MPEG4/ISO/AVC
Duration : 43 min 2 s
Bit rate : 11.0 Mb/s
Width : 1 920 pixels
Height : 1 080 pixels
Display aspect ratio : 16:9
Frame rate mode : Constant
Frame rate : 24.000 FPS
Color space : YUV
Chroma subsampling : 4:2:0
Bit depth : 8 bits
Scan type : Progressive
Bits/(Pixel*Frame) : 0.221
Stream size : 3.30 GiB (94%)
Default : Yes
Forced : No
Color range : Limited
Color primaries : BT.709
Transfer characteristics : BT.709
Matrix coefficients : BT.709

Audio
ID : 2
Format : E-AC-3
Format/Info : Enhanced Audio Coding 3
Format settings, Endianness : Big
Codec ID : A_EAC3
Duration : 43 min 2 s
Bit rate mode : Constant
Bit rate : 640 kb/s
Channel(s) : 6 channels
Channel positions : Front: L C R, Side: L R, LFE
Sampling rate : 48.0 kHz
Frame rate : 187.500 FPS (256 SPF)
Compression mode : Lossy
Stream size : 197 MiB (6%)
Language : English
Service kind : Complete Main
Default : Yes
Forced : No

Text
ID : 3
Format : UTF-8
Codec ID : S_TEXT/UTF8
Codec ID/Info : UTF-8 Plain Text
Duration : 42 min 22 s
Bit rate : 104 b/s
Count of elements : 937
Stream size : 32.4 KiB (0%)
Title : SDH
Language : English
Default : No
Forced : No

Menu
00:00:00.000 : en:Studio Logo
00:00:06.000 : en:Scene 2
00:02:29.000 : en:Scene 3
00:04:01.000 : en:Scene 4
00:08:58.000 : en:Title Sequence
00:09:03.000 : en:Scene 6
00:10:26.000 : en:Scene 7
00:11:53.000 : en:Scene 8
00:14:34.000 : en:Scene 9
00:16:38.000 : en:Scene 10
00:18:35.000 : en:Scene 11
00:21:44.000 : en:Scene 12
00:27:28.000 : en:Scene 13
00:29:56.000 : en:Scene 14
00:33:28.000 : en:Scene 15
00:35:23.000 : en:Scene 16
00:38:25.000 : en:Scene 17
00:41:13.000 : en:Scene 18
00:42:29.000 : en:End Credits





Bull S04E20


Bull S04E20


Bull S04E20


Bull S04E20


Bull S04E20

All episodes