Index
# A B C D E F G H I J K L M N O P Q R S T U V W Y Z
Tags
Language
Tags

Featured TV Shows


Bull S06E18

Posted By: Tavaz
720p (HD) / WEBRip IMDb
Bull S06E18

Bull S06E18
WEBRip | MKV | 1280x720 | English | H264 @ 3769 kbps | E-AC-3 @ 640 kbps | 42 min 14 s | 1.30 GiB
Subtitles: English
Genre: Crime, Drama


Dr. Jason Bull is the brilliant, brash, and charming founder of a hugely successful trial consulting firm.

02a7b83921d64eb7aec5ecdeb2da1d46.mkv (1.3 GB)



General
Unique ID : 153371295515024617889148769629094609041 (0x73623CB03D097D548B7B2AC1E9710091)
Complete name : ./02a7b83921d64eb7aec5ecdeb2da1d46.mkv
Format : Matroska
Format version : Version 4 / Version 2
File size : 1.30 GiB
Duration : 42 min 14 s
Overall bit rate : 4 411 kb/s
Encoded date : UTC 2022-04-24 01:20:07
Writing application : mkvmerge v67.0.0 ('Under Stars') 64-bit
Writing library : libebml v1.4.2 + libmatroska v1.6.4

Video
ID : 1
Format : AVC
Format/Info : Advanced Video Codec
Format profile : High@L3.1
Format settings : CABAC / 4 Ref Frames
Format settings, CABAC : Yes
Format settings, RefFrames : 4 frames
Codec ID : V_MPEG4/ISO/AVC
Duration : 42 min 14 s
Bit rate mode : Constant
Bit rate : 3 769 kb/s
Nominal bit rate : 4 000 kb/s
Width : 1 280 pixels
Height : 720 pixels
Display aspect ratio : 16:9
Frame rate mode : Constant
Frame rate : 24.000 FPS
Color space : YUV
Chroma subsampling : 4:2:0
Bit depth : 8 bits
Scan type : Progressive
Bits/(Pixel*Frame) : 0.170
Stream size : 1.11 GiB (85%)
Default : Yes
Forced : No
Color range : Limited
Color primaries : BT.709
Transfer characteristics : BT.709
Matrix coefficients : BT.709

Audio
ID : 2
Format : E-AC-3
Format/Info : Enhanced Audio Coding 3
Format settings, Endianness : Big
Codec ID : A_EAC3
Duration : 42 min 14 s
Bit rate mode : Constant
Bit rate : 640 kb/s
Channel(s) : 6 channels
Channel positions : Front: L C R, Side: L R, LFE
Sampling rate : 48.0 kHz
Frame rate : 187.500 FPS (256 SPF)
Compression mode : Lossy
Stream size : 193 MiB (15%)
Language : English
Service kind : Complete Main
Default : Yes
Forced : No

Text
ID : 3
Format : UTF-8
Codec ID : S_TEXT/UTF8
Codec ID/Info : UTF-8 Plain Text
Duration : 41 min 34 s
Bit rate : 103 b/s
Count of elements : 1000
Stream size : 31.7 KiB (0%)
Language : English
Default : No
Forced : No





Bull S06E18


Bull S06E18


Bull S06E18


Bull S06E18


Bull S06E18

All episodes