Featured TV Shows


Bull S03E06

Posted By: Tavaz
1080p (FullHD) / HDTV IMDb
Bull S03E06

Bull S03E06
HDTV | MKV | 1920x1080 | English | H264 @ 21737 kbps | FLAC @ 2606 kbps | 43 min 4 s | 7.33 GiB
Subtitles: English
Genre: Crime, Drama

Dr. Jason Bull is the brilliant, brash, and charming founder of a hugely successful trial consulting firm.

85186862a8064a6f9a8b1c00201f18bb.mkv (7.3 GB)



General
Unique ID : 327997690787855949466971443120332807977 (0xF6C20EB43EB53F2AD89AA98C65171F29)
Complete name : ./85186862a8064a6f9a8b1c00201f18bb.mkv
Format : Matroska
Format version : Version 4 / Version 2
File size : 7.33 GiB
Duration : 43 min 4 s
Overall bit rate mode : Variable
Overall bit rate : 24.3 Mb/s
Encoded date : UTC 2018-10-30 02:11:59
Writing application : mkvmerge v23.0.0 ('The Bride Said No') 64-bit
Writing library : libebml v1.3.6 + libmatroska v1.4.9

Video
ID : 1
Format : AVC
Format/Info : Advanced Video Codec
Format profile : High@L4.1
Format settings : CABAC / 4 Ref Frames
Format settings, CABAC : Yes
Format settings, RefFrames : 4 frames
Codec ID : V_MPEG4/ISO/AVC
Duration : 43 min 4 s
Bit rate : 21.7 Mb/s
Width : 1 920 pixels
Height : 1 080 pixels
Display aspect ratio : 16:9
Frame rate mode : Constant
Frame rate : 23.976 (24000/1001) FPS
Color space : YUV
Chroma subsampling : 4:2:0
Bit depth : 8 bits
Scan type : Progressive
Bits/(Pixel*Frame) : 0.437
Stream size : 6.54 GiB (89%)
Writing library : x264 core 155 r2901 7d0ff22
Encoding settings : cabac=1 / ref=4 / deblock=1:-3:-3 / analyse=0x3:0x133 / me=umh / subme=10 / psy=1 / psy_rd=1.00:0.00 / mixed_ref=1 / me_range=48 / chroma_me=1 / trellis=2 / 8x8dct=1 / cqm=0 / deadzone=21,11 / fast_pskip=1 / chroma_qp_offset=-2 / threads=34 / lookahead_threads=5 / sliced_threads=0 / nr=0 / decimate=0 / interlaced=0 / bluray_compat=0 / constrained_intra=0 / bframes=8 / b_pyramid=2 / b_adapt=2 / b_bias=0 / direct=3 / weightb=1 / open_gop=0 / weightp=2 / keyint=250 / keyint_min=23 / scenecut=40 / intra_refresh=0 / rc=crf / mbtree=0 / crf=17.0 / qcomp=0.80 / qpmin=0 / qpmax=69 / qpstep=4 / ip_ratio=1.40 / pb_ratio=1.30 / aq=3:0.80
Language : English
Default : Yes
Forced : No

Audio
ID : 2
Format : FLAC
Format/Info : Free Lossless Audio Codec
Codec ID : A_FLAC
Duration : 43 min 4 s
Bit rate mode : Variable
Bit rate : 2 606 kb/s
Channel(s) : 6 channels
Channel positions : Front: L C R, Side: L R, LFE
Sampling rate : 48.0 kHz
Frame rate : 11.719 FPS (4096 SPF)
Bit depth : 24 bits
Stream size : 803 MiB (11%)
Writing library : libFLAC 1.3.1 (UTC 2014-11-25)
Language : English
Default : Yes
Forced : No

Text
ID : 3
Format : UTF-8
Codec ID : S_TEXT/UTF8
Codec ID/Info : UTF-8 Plain Text
Duration : 42 min 30 s
Bit rate : 117 b/s
Count of elements : 864
Stream size : 36.6 KiB (0%)
Language : English
Default : Yes
Forced : No





Bull S03E06


Bull S03E06


Bull S03E06


Bull S03E06


Bull S03E06

All episodes