Index
# A B C D E F G H I J K L M N O P Q R S T U V W Y Z
Tags
Language
Tags

Featured TV Shows


Burden of Truth S01E03

Posted By: Tavaz
720p (HD) / WEB-DL IMDb
Burden of Truth S01E03

Burden of Truth S01E03
WEB-DL | MKV | 1280x720 | English | H264 @ 2943 kbps | E-AC-3 @ 640 kbps | 44 min 5 s | 1.10 GiB
Subtitles: English
Genre: Drama

A big city lawyer returns to her hometown to take the case of a group of girls suffering from a mysterious illness. A series order of ten episodes is being produced for CBC.

52f084e532a7465eb32b98380a139242.mkv (1.1 GB)



General
Complete name : ./52f084e532a7465eb32b98380a139242.mkv
Format : Matroska
Format version : Version 4 / Version 2
File size : 1.10 GiB
Duration : 44 min 5 s
Overall bit rate mode : Variable
Overall bit rate : 3 585 kb/s
Encoded date : UTC 2018-08-31 23:46:56
Writing application : mkvmerge v13.0.0 ('The Juggler') 64bit
Writing library : libebml v1.3.4 + libmatroska v1.4.5

Video
ID : 1
Format : AVC
Format/Info : Advanced Video Codec
Format profile : High@L3.1
Format settings : CABAC / 5 Ref Frames
Format settings, CABAC : Yes
Format settings, RefFrames : 5 frames
Codec ID : V_MPEG4/ISO/AVC
Duration : 44 min 5 s
Bit rate mode : Variable
Bit rate : 2 943 kb/s
Maximum bit rate : 4 500 kb/s
Width : 1 280 pixels
Height : 720 pixels
Display aspect ratio : 16:9
Frame rate mode : Constant
Frame rate : 23.976 (24000/1001) FPS
Color space : YUV
Chroma subsampling : 4:2:0
Bit depth : 8 bits
Scan type : Progressive
Bits/(Pixel*Frame) : 0.133
Stream size : 928 MiB (82%)
Default : Yes
Forced : No
Color range : Limited
Color primaries : BT.709
Transfer characteristics : BT.709
Matrix coefficients : BT.709

Audio
ID : 2
Format : E-AC-3
Format/Info : Enhanced Audio Coding 3
Format settings, Endianness : Big
Codec ID : A_EAC3
Duration : 44 min 5 s
Bit rate mode : Constant
Bit rate : 640 kb/s
Channel(s) : 6 channels
Channel positions : Front: L C R, Side: L R, LFE
Sampling rate : 48.0 kHz
Frame rate : 187.500 FPS (256 SPF)
Compression mode : Lossy
Stream size : 202 MiB (18%)
Language : English
Service kind : Complete Main
Default : Yes
Forced : No

Text #1
ID : 3
Format : UTF-8
Codec ID : S_TEXT/UTF8
Codec ID/Info : UTF-8 Plain Text
Duration : 43 min 55 s
Bit rate : 81 b/s
Count of elements : 762
Stream size : 26.3 KiB (0%)
Language : English
Default : No
Forced : No

Text #2
ID : 4
Format : UTF-8
Codec ID : S_TEXT/UTF8
Codec ID/Info : UTF-8 Plain Text
Duration : 43 min 55 s
Bit rate : 89 b/s
Count of elements : 840
Stream size : 28.7 KiB (0%)
Title : SDH
Language : English
Default : No
Forced : No





Burden of Truth S01E03


Burden of Truth S01E03


Burden of Truth S01E03


Burden of Truth S01E03


Burden of Truth S01E03

All episodes