Index
# A B C D E F G H I J K L M N O P Q R S T U V W Y Z
Tags
Language
Tags

Featured TV Shows


Burden of Truth S01E09

Posted By: Tavaz
720p (HD) / WEBRip IMDb
Burden of Truth S01E09

Burden of Truth S01E09
WEBRip | MOV | 1280x720 | English / English | H264 @ 3000 kbps | AC-3 @ 384 kbps | 44 min 10 s | 1.10 GiB
Subtitles: English
Genre: Drama

A big city lawyer returns to her hometown to take the case of a group of girls suffering from a mysterious illness. A series order of ten episodes is being produced for CBC.

Burden.of.Truth.S01E09.Home.to.Roost.720p.WebRip.x264.AC3-TVC.mp4 (1.1 GB)



General
Complete name : ./Burden.of.Truth.S01E09.Home.to.Roost.720p.WebRip.x264.AC3-TVC.mp4
Format : MPEG-4
Format profile : Base Media / Version 2
Codec ID : mp42 (mp42/isom)
File size : 1.10 GiB
Duration : 44 min 10 s
Overall bit rate mode : Variable
Overall bit rate : 3 560 kb/s
Collection : Burden of Truth
Season : 1
Part : 9
Track name : Burden of Truth S01E09 Home to Roost
Actor : Peter Mooney / Star Slade / Kristin Kreuk
Genre : Drama
ContentType : TV Show
Description : With Joanna disqualified and the clock running out on Billy who'll have to face Joanna's father alone, Joanna must think outside the box if they want to win this. / Burden of Truth is a legal drama starring Kristin Kreuk as a big city lawyer passed over for partnership who returns to her hometown to take on what she thinks is a simple case, only to find herself in a fight for justice for a group of sick girls.
Recorded date : UTC 2018-04-04 00:00:00
Encoded date : UTC 2018-04-05 03:17:51
Tagged date : UTC 2018-04-05 03:17:58
Writing application : HandBrake 1.0.7 2017040900
Cover : Yes
Comment : A TVChaos Rip
TVNetworkName : CBC (CA)
Part_ID : 109
HDVideo : Yes

Video
ID : 1
Format : AVC
Format/Info : Advanced Video Codec
Format profile : High@L4.1
Format settings : CABAC / 6 Ref Frames
Format settings, CABAC : Yes
Format settings, RefFrames : 6 frames
Codec ID : avc1
Codec ID/Info : Advanced Video Coding
Duration : 44 min 10 s
Bit rate : 3 000 kb/s
Width : 1 280 pixels
Height : 720 pixels
Display aspect ratio : 16:9
Frame rate mode : Constant
Frame rate : 29.970 (30000/1001) FPS
Color space : YUV
Chroma subsampling : 4:2:0
Bit depth : 8 bits
Scan type : Progressive
Bits/(Pixel*Frame) : 0.109
Stream size : 941 MiB (84%)
Writing library : x264 core 148 r2708 86b7198
Encoding settings : cabac=1 / ref=6 / deblock=1:-1:-1 / analyse=0x3:0x113 / me=hex / subme=6 / psy=1 / psy_rd=1.00:0.15 / mixed_ref=1 / me_range=16 / chroma_me=1 / trellis=1 / 8x8dct=1 / cqm=0 / deadzone=21,11 / fast_pskip=1 / chroma_qp_offset=-3 / threads=12 / lookahead_threads=2 / sliced_threads=0 / nr=0 / decimate=1 / interlaced=0 / bluray_compat=0 / constrained_intra=0 / bframes=3 / b_pyramid=2 / b_adapt=1 / b_bias=0 / direct=1 / weightb=1 / open_gop=0 / weightp=1 / keyint=300 / keyint_min=30 / scenecut=40 / intra_refresh=0 / rc_lookahead=30 / rc=abr / mbtree=1 / bitrate=3000 / ratetol=1.0 / qcomp=0.60 / qpmin=0 / qpmax=69 / qpstep=4 / vbv_maxrate=62500 / vbv_bufsize=78125 / nal_hrd=none / filler=0 / ip_ratio=1.40 / aq=1:1.00
Encoded date : UTC 2018-04-05 03:17:51
Tagged date : UTC 2018-04-05 03:17:58
Color range : Limited
Color primaries : BT.709
Transfer characteristics : BT.709
Matrix coefficients : BT.709

Audio #1
ID : 2
Format : AC-3
Format/Info : Audio Coding 3
Format settings, Endianness : Big
Codec ID : ac-3
Duration : 44 min 10 s
Bit rate mode : Constant
Bit rate : 384 kb/s
Channel(s) : 6 channels
Channel positions : Front: L C R, Side: L R, LFE
Sampling rate : 48.0 kHz
Frame rate : 31.250 FPS (1536 SPF)
Bit depth : 16 bits
Compression mode : Lossy
Stream size : 121 MiB (11%)
Language : English
Service kind : Complete Main
Default : Yes
Alternate group : 1
Encoded date : UTC 2018-04-05 03:17:51
Tagged date : UTC 2018-04-05 03:17:58

Audio #2
ID : 3
Format : AC-3
Format/Info : Audio Coding 3
Format settings, Endianness : Big
Codec ID : ac-3
Duration : 44 min 10 s
Source duration : 44 min 10 s
Bit rate mode : Constant
Bit rate : 192 kb/s
Channel(s) : 2 channels
Channel positions : Front: L R
Sampling rate : 48.0 kHz
Frame rate : 31.250 FPS (1536 SPF)
Bit depth : 16 bits
Compression mode : Lossy
Stream size : 60.7 MiB (5%)
Source stream size : 60.7 MiB (5%)
Language : English
Service kind : Complete Main
Default : No
Alternate group : 1
Encoded date : UTC 2018-04-05 03:17:51
Tagged date : UTC 2018-04-05 03:17:58

Text
ID : 4
Format : Timed Text
Muxing mode : sbtl
Codec ID : tx3g
Duration : 44 min 2 s
Bit rate mode : Variable
Bit rate : 98 b/s
Stream size : 31.6 KiB (0%)
Language : English
Default : Yes
Forced : No
Alternate group : 2
Encoded date : UTC 2018-04-05 03:17:51
Tagged date : UTC 2018-04-05 03:17:58





Burden of Truth S01E09


Burden of Truth S01E09


Burden of Truth S01E09


Burden of Truth S01E09


Burden of Truth S01E09

All episodes