Featured TV Shows


Cardinal S02E01

Posted By: Tavaz
1080p (FullHD) / WEB-DL IMDb
Cardinal S02E01

Cardinal S02E01
WEB-DL | MKV | 1920x1080 | English | H264 @ 3220 kbps | AAC @ 63 kbps | 43 min 28 s | 1 022 MiB
Subtitles: English
Genre: Crime, Drama

Detective John Cardinal attempts to uncover the mystery of what happened to the missing 13-year-old girl whose body is discovered in the shaft-head of an abandoned mine. At the same time, he comes under investigation by his new partner, Lise Delorme, a tough investigator in her own right.

520a52d069be4759bc20198a2de2f9cd.mkv (1021.9 MB)



General
Unique ID : 181504794468015563451694895022099929605 (0x888C8D4774B480AE9924D7CED2801A05)
Complete name : ./520a52d069be4759bc20198a2de2f9cd.mkv
Format : Matroska
Format version : Version 4 / Version 2
File size : 1 022 MiB
Duration : 43 min 28 s
Overall bit rate : 3 286 kb/s
Encoded date : UTC 2018-02-16 19:29:44
Writing application : mkvmerge v18.0.0 ('Apricity') 64-bit
Writing library : libebml v1.3.5 + libmatroska v1.4.8

Video
ID : 1
Format : AVC
Format/Info : Advanced Video Codec
Format profile : High@L4
Format settings : CABAC / 4 Ref Frames
Format settings, CABAC : Yes
Format settings, RefFrames : 4 frames
Codec ID : V_MPEG4/ISO/AVC
Duration : 43 min 28 s
Bit rate : 3 220 kb/s
Width : 1 920 pixels
Height : 1 080 pixels
Display aspect ratio : 16:9
Frame rate mode : Constant
Frame rate : 23.976 (24000/1001) FPS
Color space : YUV
Chroma subsampling : 4:2:0
Bit depth : 8 bits
Scan type : Progressive
Bits/(Pixel*Frame) : 0.065
Stream size : 1 001 MiB (98%)
Default : Yes
Forced : No

Audio
ID : 2
Format : AAC
Format/Info : Advanced Audio Codec
Format profile : HE-AAC / LC
Format settings : Explicit
Codec ID : A_AAC-2
Duration : 43 min 28 s
Bit rate : 64.0 kb/s
Channel(s) : 2 channels
Channel positions : Front: L R
Sampling rate : 48.0 kHz / 24.0 kHz
Frame rate : 23.438 FPS (1024 SPF)
Compression mode : Lossy
Stream size : 19.9 MiB (2%)
Language : English
Default : Yes
Forced : No

Text
ID : 3
Format : UTF-8
Codec ID : S_TEXT/UTF8
Codec ID/Info : UTF-8 Plain Text
Duration : 42 min 50 s
Bit rate : 59 b/s
Count of elements : 713
Stream size : 18.5 KiB (0%)
Language : English
Default : No
Forced : No

Menu
00:00:00.000 : en:Chapter 1
00:12:57.250 : en:Chapter 2
00:18:08.875 : en:Chapter 3
00:24:26.666 : en:Chapter 4
00:34:36.208 : en:Chapter 5
00:39:05.583 : en:Chapter 6





Cardinal S02E01


Cardinal S02E01


Cardinal S02E01


Cardinal S02E01


Cardinal S02E01

All episodes