Featured TV Shows


Cardinal S02E03

Posted By: Tavaz
720p (HD) / WEB-DL IMDb
Cardinal S02E03

Cardinal S02E03
WEB-DL | MKV | 1280x720 | English | H264 @ 1224 kbps | AAC @ 63 kbps | 43 min 30 s | 402 MiB
Subtitles: English
Genre: Crime, Drama

Detective John Cardinal attempts to uncover the mystery of what happened to the missing 13-year-old girl whose body is discovered in the shaft-head of an abandoned mine. At the same time, he comes under investigation by his new partner, Lise Delorme, a tough investigator in her own right.

3fe0befeffc74228a903a7497fad2bda.mkv (401.6 MB)



General
Unique ID : 206940483898566066147821939698586209093 (0x9BAF49974813D6D3917BE7901AB1CB45)
Complete name : ./3fe0befeffc74228a903a7497fad2bda.mkv
Format : Matroska
Format version : Version 4 / Version 2
File size : 402 MiB
Duration : 43 min 30 s
Overall bit rate : 1 291 kb/s
Encoded date : UTC 2018-02-16 19:34:14
Writing application : mkvmerge v18.0.0 ('Apricity') 64-bit
Writing library : libebml v1.3.5 + libmatroska v1.4.8

Video
ID : 1
Format : AVC
Format/Info : Advanced Video Codec
Format profile : High@L3.1
Format settings : CABAC / 5 Ref Frames
Format settings, CABAC : Yes
Format settings, RefFrames : 5 frames
Codec ID : V_MPEG4/ISO/AVC
Duration : 43 min 30 s
Bit rate : 1 225 kb/s
Width : 1 280 pixels
Height : 720 pixels
Display aspect ratio : 16:9
Frame rate mode : Constant
Frame rate : 23.976 (24000/1001) FPS
Color space : YUV
Chroma subsampling : 4:2:0
Bit depth : 8 bits
Scan type : Progressive
Bits/(Pixel*Frame) : 0.055
Stream size : 381 MiB (95%)
Default : Yes
Forced : No

Audio
ID : 2
Format : AAC
Format/Info : Advanced Audio Codec
Format profile : HE-AAC / LC
Format settings : Explicit
Codec ID : A_AAC-2
Duration : 43 min 30 s
Bit rate : 64.0 kb/s
Channel(s) : 2 channels
Channel positions : Front: L R
Sampling rate : 48.0 kHz / 24.0 kHz
Frame rate : 23.438 FPS (1024 SPF)
Compression mode : Lossy
Stream size : 19.9 MiB (5%)
Language : English
Default : Yes
Forced : No

Text
ID : 3
Format : UTF-8
Codec ID : S_TEXT/UTF8
Codec ID/Info : UTF-8 Plain Text
Duration : 42 min 50 s
Bit rate : 58 b/s
Count of elements : 705
Stream size : 18.3 KiB (0%)
Language : English
Default : No
Forced : No

Menu
00:00:00.000 : en:Chapter 1
00:10:17.208 : en:Chapter 2
00:17:36.625 : en:Chapter 3
00:26:29.000 : en:Chapter 4
00:31:53.000 : en:Chapter 5
00:39:53.750 : en:Chapter 6





Cardinal S02E03


Cardinal S02E03


Cardinal S02E03


Cardinal S02E03


Cardinal S02E03

All episodes