Featured TV Shows


Cardinal S02E04

Posted By: Tavaz
720p (HD) / WEB-DL IMDb
Cardinal S02E04

Cardinal S02E04
WEB-DL | MKV | 1280x720 | English | H264 @ 1262 kbps | AAC @ 63 kbps | 43 min 30 s | 413 MiB
Subtitles: English
Genre: Crime, Drama

Detective John Cardinal attempts to uncover the mystery of what happened to the missing 13-year-old girl whose body is discovered in the shaft-head of an abandoned mine. At the same time, he comes under investigation by his new partner, Lise Delorme, a tough investigator in her own right.

3373746a5d3f4dbcaa027fc3372b7c9c.mkv (413.5 MB)



General
Unique ID : 171081444663332802448099326201213288514 (0x80B51674DBB088F8AD1E92FA60750042)
Complete name : ./3373746a5d3f4dbcaa027fc3372b7c9c.mkv
Format : Matroska
Format version : Version 4 / Version 2
File size : 413 MiB
Duration : 43 min 30 s
Overall bit rate : 1 329 kb/s
Encoded date : UTC 2018-02-16 19:35:18
Writing application : mkvmerge v18.0.0 ('Apricity') 64-bit
Writing library : libebml v1.3.5 + libmatroska v1.4.8

Video
ID : 1
Format : AVC
Format/Info : Advanced Video Codec
Format profile : High@L3.1
Format settings : CABAC / 5 Ref Frames
Format settings, CABAC : Yes
Format settings, RefFrames : 5 frames
Codec ID : V_MPEG4/ISO/AVC
Duration : 43 min 30 s
Bit rate : 1 263 kb/s
Width : 1 280 pixels
Height : 720 pixels
Display aspect ratio : 16:9
Frame rate mode : Constant
Frame rate : 23.976 (24000/1001) FPS
Color space : YUV
Chroma subsampling : 4:2:0
Bit depth : 8 bits
Scan type : Progressive
Bits/(Pixel*Frame) : 0.057
Stream size : 393 MiB (95%)
Default : Yes
Forced : No

Audio
ID : 2
Format : AAC
Format/Info : Advanced Audio Codec
Format profile : HE-AAC / LC
Format settings : Explicit
Codec ID : A_AAC-2
Duration : 43 min 30 s
Bit rate : 64.0 kb/s
Channel(s) : 2 channels
Channel positions : Front: L R
Sampling rate : 48.0 kHz / 24.0 kHz
Frame rate : 23.438 FPS (1024 SPF)
Compression mode : Lossy
Stream size : 19.9 MiB (5%)
Language : English
Default : Yes
Forced : No

Text
ID : 3
Format : UTF-8
Codec ID : S_TEXT/UTF8
Codec ID/Info : UTF-8 Plain Text
Duration : 42 min 51 s
Bit rate : 59 b/s
Count of elements : 717
Stream size : 18.6 KiB (0%)
Language : English
Default : No
Forced : No

Menu
00:00:00.000 : en:Chapter 1
00:11:22.416 : en:Chapter 2
00:17:26.833 : en:Chapter 3
00:25:47.333 : en:Chapter 4
00:32:52.708 : en:Chapter 5
00:40:34.208 : en:Chapter 6





Cardinal S02E04


Cardinal S02E04


Cardinal S02E04


Cardinal S02E04


Cardinal S02E04

All episodes