Featured TV Shows


Cardinal S02E05

Posted By: Tavaz
1080p (FullHD) / BDRip IMDb
Cardinal S02E05

Cardinal S02E05
BluRay Remux | MKV | 1920x1080 | English | H264 @ 14000 kbps | DTS | 43 min 26 s | 4.94 GiB
Subtitles: German
Genre: Crime, Drama

Detective John Cardinal attempts to uncover the mystery of what happened to the missing 13-year-old girl whose body is discovered in the shaft-head of an abandoned mine. At the same time, he comes under investigation by his new partner, Lise Delorme, a tough investigator in her own right.

2c6e8b676cdb4208b676ba58dc54d4e1.mkv (4.9 GB)



General
Unique ID : 320830450183455435905490959898089504435 (0xF15DB275AABE4C3221787FD49DFA3EB3)
Complete name : ./2c6e8b676cdb4208b676ba58dc54d4e1.mkv
Format : Matroska
Format version : Version 4 / Version 2
File size : 4.94 GiB
Duration : 43 min 26 s
Overall bit rate mode : Variable
Overall bit rate : 16.3 Mb/s
Movie name : Cardinal - S02E05 - Northwind
Track name/Position : 5
Track name/Total : 6
Encoded date : UTC 2019-02-26 17:57:50
Writing application : mkvmerge v31.0.0 ('Dolores In A Shoestand') 64-bit
Writing library : libebml v1.3.6 + libmatroska v1.4.9
IMDB : tt7174250
TMDB : tv/67743
TVDB : 321231

Video
ID : 1
Format : AVC
Format/Info : Advanced Video Codec
Format profile : High@L4.1
Format settings : CABAC / 3 Ref Frames
Format settings, CABAC : Yes
Format settings, RefFrames : 3 frames
Codec ID : V_MPEG4/ISO/AVC
Duration : 43 min 26 s
Bit rate mode : Variable
Bit rate : 14.0 Mb/s
Maximum bit rate : 28.0 Mb/s
Width : 1 920 pixels
Height : 1 080 pixels
Display aspect ratio : 16:9
Frame rate mode : Constant
Frame rate : 23.976 (24000/1001) FPS
Standard : NTSC
Color space : YUV
Chroma subsampling : 4:2:0
Bit depth : 8 bits
Scan type : Progressive
Bits/(Pixel*Frame) : 0.282
Stream size : 4.23 GiB (86%)
Title : MPEG-4 AVC Video / 13930 kbps / 1080p / 23.976 fps / 16:9 / High Profile 4.1
Writing library : x264pro - Adobe CS Exporter Plug-in
Encoding settings : cabac=1 / ref=4 / deblock=1:-1:-1 / analyse=0x3:0x113 / me=umh / subme=8 / psy=1 / psy_rd=1.00:0.15 / mixed_ref=1 / me_range=16 / chroma_me=1 / trellis=1 / 8x8dct=1 / cqm=0 / deadzone=21,11 / fast_pskip=1 / chroma_qp_offset=-3 / threads=12 / lookahead_threads=2 / sliced_threads=0 / slices=4 / nr=0 / decimate=1 / interlaced=0 / bluray_compat=1 / constrained_intra=0 / bframes=3 / b_pyramid=1 / b_adapt=2 / b_bias=0 / direct=3 / weightb=1 / open_gop=0 / weightp=1 / keyint=24 / keyint_min=1 / scenecut=40 / intra_refresh=0 / rc_lookahead=25 / rc=2pass / mbtree=1 / bitrate=14000 / ratetol=1.0 / qcomp=0.60 / qpmin=0 / qpmax=69 / qpstep=4 / cplxblur=20.0 / qblur=0.5 / vbv_maxrate=28000 / vbv_bufsize=30000 / nal_hrd=vbr / ip_ratio=1.40 / aq=1:1.00
Language : English
Default : Yes
Forced : No
Color range : Limited
Color primaries : BT.709
Transfer characteristics : BT.709
Matrix coefficients : BT.709

Audio
ID : 2
Format : DTS
Format/Info : Digital Theater Systems
Format profile : MA / Core
Mode : 16
Format settings, Endianness : Big
Codec ID : A_DTS
Duration : 43 min 26 s
Bit rate mode : Variable / Constant
Bit rate : 2 316 kb/s / 1 509 kb/s
Channel(s) : 6 channels
Channel positions : Front: L C R, Side: L R, LFE
Sampling rate : 48.0 kHz
Frame rate : 93.750 FPS (512 SPF)
Bit depth : 24 bits
Compression mode : Lossless / Lossy
Stream size : 720 MiB (14%)
Title : DTS-HD Master Audio / 5.1 / 48 kHz / 2316 kbps / 24-bit
Language : English
Default : Yes
Forced : No

Text
ID : 3
Format : PGS
Codec ID : S_HDMV/PGS
Codec ID/Info : Picture based subtitle format used on BDs/HD-DVDs
Duration : 42 min 38 s
Bit rate : 24.6 kb/s
Count of elements : 706
Stream size : 7.51 MiB (0%)
Language : German
Default : No
Forced : No

Menu
00:00:00.000 : en:Chapter 1
00:02:00.037 : en:Chapter 2
00:02:35.072 : en:Chapter 3
00:09:21.936 : en:Chapter 4
00:16:42.919 : en:Chapter 5
00:25:29.445 : en:Chapter 6
00:33:58.995 : en:Chapter 7
00:42:43.728 : en:Chapter 8





Cardinal S02E05


Cardinal S02E05


Cardinal S02E05


Cardinal S02E05


Cardinal S02E05

All episodes