Index
# A B C D E F G H I J K L M N O P Q R S T U V W Y Z
Tags
Language
Tags

Featured TV Shows


Carnival Row S01E08

Posted By: Tavaz
1080p (FullHD) / WEBRip IMDb
Carnival Row S01E08

Carnival Row S01E08
WEBRip | MKV | 1920x800 | English | H264 @ 4319 kbps | E-AC-3 @ 640 kbps | 1 h 7 min | 2.33 GiB


In a mystical and dark city filled with humans, fairies and other creatures, a police detective investigates a series of gruesome murders leveled against the fairy population. During his investigation, the detective becomes the prime suspect and must find the real killer to clear his name.

8229b504079f41de8cbd92b5fd2a672f.mkv (2.3 GB)



General
Unique ID : 271472892680634843541566247015505041685 (0xCC3BC6FDCEE5DF80CBD369C5E7819915)
Complete name : ./8229b504079f41de8cbd92b5fd2a672f.mkv
Format : Matroska
Format version : Version 4 / Version 2
File size : 2.33 GiB
Duration : 1 h 7 min
Overall bit rate : 4 961 kb/s
Encoded date : UTC 2019-08-30 16:42:12
Writing application : mkvmerge v32.0.0 ('Astral Progressions') 64-bit
Writing library : libebml v1.3.7 + libmatroska v1.5.0

Video
ID : 1
Format : AVC
Format/Info : Advanced Video Codec
Format profile : High@L4.1
Format settings : CABAC / 5 Ref Frames
Format settings, CABAC : Yes
Format settings, RefFrames : 5 frames
Codec ID : V_MPEG4/ISO/AVC
Duration : 1 h 7 min
Bit rate : 4 320 kb/s
Width : 1 920 pixels
Height : 800 pixels
Display aspect ratio : 2.40:1
Frame rate mode : Constant
Frame rate : 23.976 (24000/1001) FPS
Color space : YUV
Chroma subsampling : 4:2:0
Bit depth : 8 bits
Scan type : Progressive
Bits/(Pixel*Frame) : 0.117
Stream size : 2.03 GiB (87%)
Writing library : x264 core 158 r2984 3759fcb
Encoding settings : cabac=1 / ref=5 / deblock=1:-1:-1 / analyse=0x3:0x113 / me=umh / subme=9 / psy=1 / psy_rd=1.00:0.00 / mixed_ref=1 / me_range=16 / chroma_me=1 / trellis=2 / 8x8dct=1 / cqm=0 / deadzone=21,11 / fast_pskip=1 / chroma_qp_offset=-2 / threads=18 / lookahead_threads=1 / sliced_threads=0 / nr=0 / decimate=1 / interlaced=0 / bluray_compat=0 / constrained_intra=0 / bframes=3 / b_pyramid=2 / b_adapt=2 / b_bias=0 / direct=3 / weightb=1 / open_gop=0 / weightp=2 / keyint=240 / keyint_min=23 / scenecut=40 / intra_refresh=0 / rc_lookahead=50 / rc=crf / mbtree=1 / crf=17.0 / qcomp=0.60 / qpmin=0 / qpmax=69 / qpstep=4 / vbv_maxrate=62500 / vbv_bufsize=78125 / crf_max=0.0 / nal_hrd=none / filler=0 / ip_ratio=1.40 / aq=1:1.00
Default : Yes
Forced : No

Audio
ID : 2
Format : E-AC-3
Format/Info : Enhanced Audio Coding 3
Format settings, Endianness : Big
Codec ID : A_EAC3
Duration : 1 h 7 min
Bit rate mode : Constant
Bit rate : 640 kb/s
Channel(s) : 6 channels
Channel positions : Front: L C R, Side: L R, LFE
Sampling rate : 48.0 kHz
Frame rate : 187.500 FPS (256 SPF)
Compression mode : Lossy
Stream size : 308 MiB (13%)
Title : English
Language : English
Service kind : Complete Main
Default : Yes
Forced : No

Menu
00:00:00.000 : en:Amazon Original
00:00:05.000 : en:History begins to pivot
00:01:05.000 : en:Opening Credits
00:02:15.000 : en:Vignette does what she has to
00:03:12.000 : en:Everyone wants answers
00:08:39.000 : en:The dangers of a relationship
00:12:00.000 : en:Absalom offers advice
00:13:23.000 : en:Jonah confronts his mother
00:15:00.000 : en:Haruspex faces her fate
00:16:06.000 : en:Securing Vignette's release
00:16:50.000 : en:An attack on Absalom
00:18:26.000 : en:The truth about Sophie Longerbane
00:21:13.000 : en:Jonah confronts his father
00:24:05.000 : en:Philo and Vignette still love each other
00:25:42.000 : en:Imogen and Mr. Agreus must make a choice
00:33:13.000 : en:News about the Haruspex's death
00:34:42.000 : en:Confronted with the truth of the prophecy
00:41:07.000 : en:A change in power
00:42:59.000 : en:A mother's sacrifice
00:50:19.000 : en:Jonah offers Millworthy a job
00:53:55.000 : en:Securing all Critch citizens
00:56:45.000 : en:Chaos creates opportunity
00:59:23.000 : en:Civil war comes to The Burgue
01:05:13.000 : en:End Credits





Carnival Row S01E08


Carnival Row S01E08


Carnival Row S01E08


Carnival Row S01E08


Carnival Row S01E08

All episodes