Index
# A B C D E F G H I J K L M N O P Q R S T U V W X Y Z
Tags
Language
Tags
May 2024
Su Mo Tu We Th Fr Sa
28 29 30 1 2 3 4
5 6 7 8 9 10 11
12 13 14 15 16 17 18
19 20 21 22 23 24 25
26 27 28 29 30 31 1

Featured TV Shows


Castle Rock S01E01

Posted By: Tavaz
1080p (FullHD) / BDRip IMDb
Castle Rock S01E01

Castle Rock S01E01
BluRay Remux | MKV | 1920x1080 | English | H264 @ 17200 kbps | DTS | 54 min 28 s | 7.42 GiB
Subtitles: Swedish, Danish, Spanish, Finnish, English, French, Norwegian, Dutch
Genre: Drama, Mystery

Based on the stories of Stephen King, the series intertwines characters and themes from the fictional town of Castle Rock.

5e73e62300084e0d902e167b648afc12.mkv (7.4 GB)



General
Unique ID : 48835801142508434915861122197756589906 (0x24BD6EE4BE59F9D8DAC4E78AB3283752)
Complete name : ./5e73e62300084e0d902e167b648afc12.mkv
Format : Matroska
Format version : Version 4 / Version 2
File size : 7.42 GiB
Duration : 54 min 28 s
Overall bit rate mode : Variable
Overall bit rate : 19.5 Mb/s
Movie name : Castle Rock - S01E01 - Severance
Track name/Position : 1
Track name/Total : 10
Encoded date : UTC 2019-01-09 20:13:31
Writing application : mkvmerge v30.1.0 ('Forever And More') 64-bit
Writing library : libebml v1.3.6 + libmatroska v1.4.9
IMDB : tt6557554
TMDB : tv/71116
TVDB : 331600

Video
ID : 1
Format : AVC
Format/Info : Advanced Video Codec
Format profile : High@L4.1
Format settings : CABAC / 2 Ref Frames
Format settings, CABAC : Yes
Format settings, RefFrames : 2 frames
Format settings, GOP : M=1, N=10
Codec ID : V_MPEG4/ISO/AVC
Duration : 54 min 28 s
Bit rate mode : Variable
Bit rate : 17.2 Mb/s
Width : 1 920 pixels
Height : 1 080 pixels
Display aspect ratio : 16:9
Frame rate mode : Constant
Frame rate : 23.976 (24000/1001) FPS
Color space : YUV
Chroma subsampling : 4:2:0
Bit depth : 8 bits
Scan type : Progressive
Bits/(Pixel*Frame) : 0.346
Stream size : 6.54 GiB (88%)
Title : MPEG-4 AVC Video / 17201 kbps / 1080p / 23.976 fps / 16:9 / High Profile 4.1
Language : English
Default : Yes
Forced : No

Audio
ID : 2
Format : DTS
Format/Info : Digital Theater Systems
Format profile : MA / Core
Mode : 16
Format settings, Endianness : Big
Codec ID : A_DTS
Duration : 54 min 28 s
Bit rate mode : Variable / Constant
Bit rate : 2 126 kb/s / 1 509 kb/s
Channel(s) : 6 channels
Channel positions : Front: L C R, Side: L R, LFE
Sampling rate : 48.0 kHz
Frame rate : 93.750 FPS (512 SPF)
Bit depth : 16 bits
Compression mode : Lossless / Lossy
Stream size : 828 MiB (11%)
Title : DTS-HD Master Audio / 5.1 / 48 kHz / 2126 kbps / 16-bit
Language : English
Default : Yes
Forced : No

Text #1
ID : 3
Format : PGS
Codec ID : S_HDMV/PGS
Codec ID/Info : Picture based subtitle format used on BDs/HD-DVDs
Duration : 54 min 9 s
Bit rate : 23.6 kb/s
Count of elements : 988
Stream size : 9.14 MiB (0%)
Title : SDH
Language : English
Default : No
Forced : No

Text #2
ID : 4
Format : PGS
Codec ID : S_HDMV/PGS
Codec ID/Info : Picture based subtitle format used on BDs/HD-DVDs
Duration : 54 min 5 s
Bit rate : 19.1 kb/s
Count of elements : 686
Stream size : 7.40 MiB (0%)
Language : Danish
Default : No
Forced : No

Text #3
ID : 5
Format : PGS
Codec ID : S_HDMV/PGS
Codec ID/Info : Picture based subtitle format used on BDs/HD-DVDs
Duration : 54 min 4 s
Bit rate : 19.6 kb/s
Count of elements : 820
Stream size : 7.59 MiB (0%)
Language : Dutch
Default : No
Forced : No

Text #4
ID : 6
Format : PGS
Codec ID : S_HDMV/PGS
Codec ID/Info : Picture based subtitle format used on BDs/HD-DVDs
Duration : 54 min 5 s
Bit rate : 19.8 kb/s
Count of elements : 692
Stream size : 7.65 MiB (0%)
Language : Finnish
Default : No
Forced : No

Text #5
ID : 7
Format : PGS
Codec ID : S_HDMV/PGS
Codec ID/Info : Picture based subtitle format used on BDs/HD-DVDs
Duration : 54 min 9 s
Bit rate : 21.7 kb/s
Count of elements : 818
Stream size : 8.40 MiB (0%)
Language : French
Default : No
Forced : No

Text #6
ID : 8
Format : PGS
Codec ID : S_HDMV/PGS
Codec ID/Info : Picture based subtitle format used on BDs/HD-DVDs
Duration : 54 min 4 s
Bit rate : 18.4 kb/s
Count of elements : 646
Stream size : 7.13 MiB (0%)
Language : Norwegian
Default : No
Forced : No

Text #7
ID : 9
Format : PGS
Codec ID : S_HDMV/PGS
Codec ID/Info : Picture based subtitle format used on BDs/HD-DVDs
Duration : 54 min 4 s
Bit rate : 21.7 kb/s
Count of elements : 860
Stream size : 8.41 MiB (0%)
Title : Castilian
Language : Spanish
Default : No
Forced : No

Text #8
ID : 10
Format : PGS
Codec ID : S_HDMV/PGS
Codec ID/Info : Picture based subtitle format used on BDs/HD-DVDs
Duration : 54 min 5 s
Bit rate : 19.6 kb/s
Count of elements : 684
Stream size : 7.59 MiB (0%)
Language : Swedish
Default : No
Forced : No

Menu
00:00:00.000 : en:Chapter 1
00:03:36.049 : en:Chapter 2
00:10:28.294 : en:Chapter 3
00:20:05.162 : en:Chapter 4
00:29:13.210 : en:Chapter 5
00:39:44.591 : en:Chapter 6
00:52:17.051 : en:Chapter 7





Castle Rock S01E01


Castle Rock S01E01


Castle Rock S01E01


Castle Rock S01E01


Castle Rock S01E01

All episodes