Index
# A B C D E F G H I J K L M N O P Q R S T U V W X Y Z
Tags
Language
Tags
May 2024
Su Mo Tu We Th Fr Sa
28 29 30 1 2 3 4
5 6 7 8 9 10 11
12 13 14 15 16 17 18
19 20 21 22 23 24 25
26 27 28 29 30 31 1

Featured TV Shows


Castle Rock S01E07

Posted By: Tavaz
1080p (FullHD) / BDRip IMDb
Castle Rock S01E07

Castle Rock S01E07
BluRay Remux | MKV | 1920x1080 | English | H264 @ 17268 kbps | DTS | 59 min 51 s | 8.20 GiB
Subtitles: Swedish, Danish, Spanish, Finnish, English, French, Norwegian, Dutch
Genre: Drama, Mystery

Based on the stories of Stephen King, the series intertwines characters and themes from the fictional town of Castle Rock.

Castle.Rock.S01E07.The.Queen.1080p.BluRay.REMUX.AVC.DTS-HD.MA.5.1-EPSiLON=742cec08a1b6bcf57c35c037fcff72d8690a44d1.part1.rar (4.3 GB)
Castle.Rock.S01E07.The.Queen.1080p.BluRay.REMUX.AVC.DTS-HD.MA.5.1-EPSiLON=742cec08a1b6bcf57c35c037fcff72d8690a44d1.part2.rar (4.0 GB)



General
Unique ID : 241590338378608487908033760372982263875 (0xB5C09B506A7E998F2F6046330827B043)
Complete name : ./51d9b6355d6647eb87c518846144c335.mkv
Format : Matroska
Format version : Version 4 / Version 2
File size : 8.20 GiB
Duration : 59 min 51 s
Overall bit rate mode : Variable
Overall bit rate : 19.6 Mb/s
Movie name : Castle Rock - S01E07 - The Queen
Track name/Position : 7
Track name/Total : 10
Encoded date : UTC 2019-01-09 20:26:05
Writing application : mkvmerge v30.1.0 ('Forever And More') 64-bit
Writing library : libebml v1.3.6 + libmatroska v1.4.9
IMDB : tt7080616
TMDB : tv/71116
TVDB : 331600

Video
ID : 1
Format : AVC
Format/Info : Advanced Video Codec
Format profile : High@L4.1
Format settings : CABAC / 2 Ref Frames
Format settings, CABAC : Yes
Format settings, RefFrames : 2 frames
Format settings, GOP : M=1, N=10
Codec ID : V_MPEG4/ISO/AVC
Duration : 59 min 51 s
Bit rate mode : Variable
Bit rate : 17.3 Mb/s
Width : 1 920 pixels
Height : 1 080 pixels
Display aspect ratio : 16:9
Frame rate mode : Constant
Frame rate : 23.976 (24000/1001) FPS
Color space : YUV
Chroma subsampling : 4:2:0
Bit depth : 8 bits
Scan type : Progressive
Bits/(Pixel*Frame) : 0.347
Stream size : 7.22 GiB (88%)
Title : MPEG-4 AVC Video / 17269 kbps / 1080p / 23.976 fps / 16:9 / High Profile 4.1
Language : English
Default : Yes
Forced : No

Audio
ID : 2
Format : DTS
Format/Info : Digital Theater Systems
Format profile : MA / Core
Mode : 16
Format settings, Endianness : Big
Codec ID : A_DTS
Duration : 59 min 51 s
Bit rate mode : Variable / Constant
Bit rate : 2 137 kb/s / 1 509 kb/s
Channel(s) : 6 channels
Channel positions : Front: L C R, Side: L R, LFE
Sampling rate : 48.0 kHz
Frame rate : 93.750 FPS (512 SPF)
Bit depth : 16 bits
Compression mode : Lossless / Lossy
Stream size : 915 MiB (11%)
Title : DTS-HD Master Audio / 5.1 / 48 kHz / 2137 kbps / 16-bit
Language : English
Default : Yes
Forced : No

Text #1
ID : 3
Format : PGS
Codec ID : S_HDMV/PGS
Codec ID/Info : Picture based subtitle format used on BDs/HD-DVDs
Duration : 59 min 41 s
Bit rate : 28.6 kb/s
Count of elements : 1326
Stream size : 12.2 MiB (0%)
Title : SDH
Language : English
Default : No
Forced : No

Text #2
ID : 4
Format : PGS
Codec ID : S_HDMV/PGS
Codec ID/Info : Picture based subtitle format used on BDs/HD-DVDs
Duration : 59 min 36 s
Bit rate : 23.4 kb/s
Count of elements : 948
Stream size : 9.97 MiB (0%)
Language : Danish
Default : No
Forced : No

Text #3
ID : 5
Format : PGS
Codec ID : S_HDMV/PGS
Codec ID/Info : Picture based subtitle format used on BDs/HD-DVDs
Duration : 59 min 36 s
Bit rate : 25.0 kb/s
Count of elements : 1180
Stream size : 10.6 MiB (0%)
Language : Dutch
Default : No
Forced : No

Text #4
ID : 6
Format : PGS
Codec ID : S_HDMV/PGS
Codec ID/Info : Picture based subtitle format used on BDs/HD-DVDs
Duration : 59 min 36 s
Bit rate : 23.2 kb/s
Count of elements : 878
Stream size : 9.87 MiB (0%)
Language : Finnish
Default : No
Forced : No

Text #5
ID : 7
Format : PGS
Codec ID : S_HDMV/PGS
Codec ID/Info : Picture based subtitle format used on BDs/HD-DVDs
Duration : 59 min 36 s
Bit rate : 25.9 kb/s
Count of elements : 1182
Stream size : 11.0 MiB (0%)
Language : French
Default : No
Forced : No

Text #6
ID : 8
Format : PGS
Codec ID : S_HDMV/PGS
Codec ID/Info : Picture based subtitle format used on BDs/HD-DVDs
Duration : 59 min 36 s
Bit rate : 22.9 kb/s
Count of elements : 880
Stream size : 9.77 MiB (0%)
Language : Norwegian
Default : No
Forced : No

Text #7
ID : 9
Format : PGS
Codec ID : S_HDMV/PGS
Codec ID/Info : Picture based subtitle format used on BDs/HD-DVDs
Duration : 59 min 35 s
Bit rate : 25.1 kb/s
Count of elements : 1194
Stream size : 10.7 MiB (0%)
Title : Castilian
Language : Spanish
Default : No
Forced : No

Text #8
ID : 10
Format : PGS
Codec ID : S_HDMV/PGS
Codec ID/Info : Picture based subtitle format used on BDs/HD-DVDs
Duration : 59 min 36 s
Bit rate : 24.3 kb/s
Count of elements : 954
Stream size : 10.4 MiB (0%)
Language : Swedish
Default : No
Forced : No

Menu
00:00:00.000 : en:Chapter 1
00:08:08.571 : en:Chapter 2
00:22:33.519 : en:Chapter 3
00:34:04.376 : en:Chapter 4
00:43:49.752 : en:Chapter 5
00:54:37.441 : en:Chapter 6
00:58:00.769 : en:Chapter 7





Castle Rock S01E07


Castle Rock S01E07


Castle Rock S01E07


Castle Rock S01E07


Castle Rock S01E07

All episodes