Index
# A B C D E F G H I J K L M N O P Q R S T U V W X Y Z
Tags
Language
Tags
May 2024
Su Mo Tu We Th Fr Sa
28 29 30 1 2 3 4
5 6 7 8 9 10 11
12 13 14 15 16 17 18
19 20 21 22 23 24 25
26 27 28 29 30 31 1

Featured TV Shows


Castle Rock S02E01

Posted By: Tavaz
1080p (FullHD) / BluRay Remux IMDb
Castle Rock S02E01

Castle Rock S02E01
BluRay Remux | MKV | 1920x1080 | English | H264 @ 19313 kbps | DTS | 1 h 0 min | 9.06 GiB
Subtitles: English
Genre: Mystery, Drama


Based on the stories of Stephen King, the series intertwines characters and themes from the fictional town of Castle Rock.

Castle.Rock.S02E01.Let.the.River.Run.1080p.DTS-HD.MA.5.1.AVC.REMUX-FraMeSToR.part1.rar (4.8 GB)
Castle.Rock.S02E01.Let.the.River.Run.1080p.DTS-HD.MA.5.1.AVC.REMUX-FraMeSToR.part2.rar (4.4 GB)



General
Unique ID : 57519594817888282390367862459003489360 (0x2B45DEFA2CFEC9275E80CAA2B9B2CC50)
Complete name : ./c5444f36dd494d1eb3720c327cdfbf13.mkv
Format : Matroska
Format version : Version 4 / Version 2
File size : 9.06 GiB
Duration : 1 h 0 min
Overall bit rate mode : Variable
Overall bit rate : 21.5 Mb/s
Movie name : Castle Rock (S02E01) Let the River Run
Encoded date : UTC 2020-07-25 19:08:00
Writing application : mkvmerge v48.0.0 ('Fortress Around Your Heart') 64-bit
Writing library : libebml v1.4.0 + libmatroska v1.6.0
IMDB : tt6548228
TMDB : tv/71116
TVDB : 331600

Video
ID : 1
Format : AVC
Format/Info : Advanced Video Codec
Format profile : High@L4.1
Format settings : CABAC / 4 Ref Frames
Format settings, CABAC : Yes
Format settings, RefFrames : 4 frames
Format settings, GOP : M=3, N=12
Codec ID : V_MPEG4/ISO/AVC
Duration : 1 h 0 min
Bit rate mode : Variable
Bit rate : 19.3 Mb/s
Maximum bit rate : 38.0 Mb/s
Width : 1 920 pixels
Height : 1 080 pixels
Display aspect ratio : 16:9
Frame rate mode : Constant
Frame rate : 23.976 (24000/1001) FPS
Color space : YUV
Chroma subsampling : 4:2:0
Bit depth : 8 bits
Scan type : Progressive
Bits/(Pixel*Frame) : 0.388
Stream size : 8.14 GiB (90%)
Default : Yes
Forced : No

Audio
ID : 2
Format : DTS
Format/Info : Digital Theater Systems
Format profile : MA / Core
Mode : 16
Format settings, Endianness : Big
Codec ID : A_DTS
Duration : 1 h 0 min
Bit rate mode : Variable / Constant
Bit rate : 2 157 kb/s / 1 509 kb/s
Channel(s) : 6 channels
Channel positions : Front: L C R, Side: L R, LFE
Sampling rate : 48.0 kHz
Frame rate : 93.750 FPS (512 SPF)
Bit depth : 16 bits
Compression mode : Lossless / Lossy
Stream size : 930 MiB (10%)
Title : DTS-HD MA 5.1
Language : English
Default : Yes
Forced : No

Text
ID : 3
Format : PGS
Codec ID : S_HDMV/PGS
Codec ID/Info : Picture based subtitle format used on BDs/HD-DVDs
Duration : 1 h 0 min
Bit rate : 32.3 kb/s
Count of elements : 1992
Stream size : 13.9 MiB (0%)
Title : English (SDH)
Language : English
Default : No
Forced : No

Menu
00:00:00.000 : en:Chapter 1
00:07:51.763 : en:Chapter 2
00:30:42.174 : en:Chapter 3
00:40:56.412 : en:Chapter 4
00:58:48.734 : en:Chapter 5





Castle Rock S02E01


Castle Rock S02E01


Castle Rock S02E01


Castle Rock S02E01


Castle Rock S02E01

All episodes