Index
# A B C D E F G H I J K L M N O P Q R S T U V W X Y Z
Tags
Language
Tags
May 2024
Su Mo Tu We Th Fr Sa
28 29 30 1 2 3 4
5 6 7 8 9 10 11
12 13 14 15 16 17 18
19 20 21 22 23 24 25
26 27 28 29 30 31 1

Featured TV Shows


Castle Rock S02E07

Posted By: Tavaz
1080p (FullHD) / BluRay Remux IMDb
Castle Rock S02E07

Castle Rock S02E07
BluRay Remux | MKV | 1920x1080 | English | H264 @ 20797 kbps | DTS | 44 min 6 s | 7.09 GiB
Subtitles: English
Genre: Mystery, Drama


Based on the stories of Stephen King, the series intertwines characters and themes from the fictional town of Castle Rock.

578147b2b5e54c9da9b17e1dfff39ca8.mkv (7.1 GB)



General
Unique ID : 164693564516880380001427838364471480643 (0x7BE6D3A638C6B2345BCB1127F47F5143)
Complete name : ./578147b2b5e54c9da9b17e1dfff39ca8.mkv
Format : Matroska
Format version : Version 4 / Version 2
File size : 7.09 GiB
Duration : 44 min 6 s
Overall bit rate mode : Variable
Overall bit rate : 23.0 Mb/s
Movie name : Castle Rock (S02E07) The Word
Encoded date : UTC 2020-07-25 19:06:01
Writing application : mkvmerge v48.0.0 ('Fortress Around Your Heart') 64-bit
Writing library : libebml v1.4.0 + libmatroska v1.6.0
IMDB : tt6548228
TMDB : tv/71116
TVDB : 331600

Video
ID : 1
Format : AVC
Format/Info : Advanced Video Codec
Format profile : High@L4.1
Format settings : CABAC / 4 Ref Frames
Format settings, CABAC : Yes
Format settings, RefFrames : 4 frames
Codec ID : V_MPEG4/ISO/AVC
Duration : 44 min 6 s
Bit rate mode : Variable
Bit rate : 20.8 Mb/s
Maximum bit rate : 38.0 Mb/s
Width : 1 920 pixels
Height : 1 080 pixels
Display aspect ratio : 16:9
Frame rate mode : Constant
Frame rate : 23.976 (24000/1001) FPS
Color space : YUV
Chroma subsampling : 4:2:0
Bit depth : 8 bits
Scan type : Progressive
Bits/(Pixel*Frame) : 0.418
Stream size : 6.41 GiB (90%)
Default : Yes
Forced : No

Audio
ID : 2
Format : DTS
Format/Info : Digital Theater Systems
Format profile : MA / Core
Mode : 16
Format settings, Endianness : Big
Codec ID : A_DTS
Duration : 44 min 6 s
Bit rate mode : Variable / Constant
Bit rate : 2 175 kb/s / 1 509 kb/s
Channel(s) : 6 channels
Channel positions : Front: L C R, Side: L R, LFE
Sampling rate : 48.0 kHz
Frame rate : 93.750 FPS (512 SPF)
Bit depth : 16 bits
Compression mode : Lossless / Lossy
Stream size : 686 MiB (9%)
Title : DTS-HD MA 5.1
Language : English
Default : Yes
Forced : No

Text
ID : 3
Format : PGS
Codec ID : S_HDMV/PGS
Codec ID/Info : Picture based subtitle format used on BDs/HD-DVDs
Duration : 43 min 55 s
Bit rate : 23.4 kb/s
Count of elements : 1100
Stream size : 7.36 MiB (0%)
Title : English (SDH)
Language : English
Default : No
Forced : No

Menu
00:00:00.000 : en:Chapter 1
00:10:55.321 : en:Chapter 2
00:20:57.798 : en:Chapter 3
00:27:00.035 : en:Chapter 4
00:34:24.479 : en:Chapter 5
00:42:37.180 : en:Chapter 6





Castle Rock S02E07


Castle Rock S02E07


Castle Rock S02E07


Castle Rock S02E07


Castle Rock S02E07

All episodes