Index
# A B C D E F G H I J K L M N O P Q R S T U V W X Y Z
Tags
Language
Tags
May 2024
Su Mo Tu We Th Fr Sa
28 29 30 1 2 3 4
5 6 7 8 9 10 11
12 13 14 15 16 17 18
19 20 21 22 23 24 25
26 27 28 29 30 31 1

Featured TV Shows


Castle Rock S02E08

Posted By: Tavaz
1080p (FullHD) / BluRay Remux IMDb
Castle Rock S02E08

Castle Rock S02E08
BluRay Remux | MKV | 1920x1080 | English | H264 @ 20725 kbps | DTS | 35 min 41 s | 5.71 GiB
Subtitles: English
Genre: Mystery, Drama


Based on the stories of Stephen King, the series intertwines characters and themes from the fictional town of Castle Rock.

3a0f4d3384bf43c1aefe11ca92f4e29e.mkv (5.7 GB)



General
Unique ID : 216891777720152716077780845050695245519 (0xA32BD641B78F0B404E5D9D9217E3DECF)
Complete name : ./3a0f4d3384bf43c1aefe11ca92f4e29e.mkv
Format : Matroska
Format version : Version 4 / Version 2
File size : 5.71 GiB
Duration : 35 min 41 s
Overall bit rate mode : Variable
Overall bit rate : 22.9 Mb/s
Movie name : Castle Rock (S02E08) Dirty
Encoded date : UTC 2020-07-25 19:05:46
Writing application : mkvmerge v48.0.0 ('Fortress Around Your Heart') 64-bit
Writing library : libebml v1.4.0 + libmatroska v1.6.0
IMDB : tt6548228
TMDB : tv/71116
TVDB : 331600

Video
ID : 1
Format : AVC
Format/Info : Advanced Video Codec
Format profile : High@L4.1
Format settings : CABAC / 4 Ref Frames
Format settings, CABAC : Yes
Format settings, RefFrames : 4 frames
Codec ID : V_MPEG4/ISO/AVC
Duration : 35 min 41 s
Bit rate mode : Variable
Bit rate : 20.7 Mb/s
Maximum bit rate : 38.0 Mb/s
Width : 1 920 pixels
Height : 1 080 pixels
Display aspect ratio : 16:9
Frame rate mode : Constant
Frame rate : 23.976 (24000/1001) FPS
Color space : YUV
Chroma subsampling : 4:2:0
Bit depth : 8 bits
Scan type : Progressive
Bits/(Pixel*Frame) : 0.417
Stream size : 5.17 GiB (90%)
Default : Yes
Forced : No

Audio
ID : 2
Format : DTS
Format/Info : Digital Theater Systems
Format profile : MA / Core
Mode : 16
Format settings, Endianness : Big
Codec ID : A_DTS
Duration : 35 min 41 s
Bit rate mode : Variable / Constant
Bit rate : 2 161 kb/s / 1 509 kb/s
Channel(s) : 6 channels
Channel positions : Front: L C R, Side: L R, LFE
Sampling rate : 48.0 kHz
Frame rate : 93.750 FPS (512 SPF)
Bit depth : 16 bits
Compression mode : Lossless / Lossy
Stream size : 552 MiB (9%)
Title : DTS-HD MA 5.1
Language : English
Default : Yes
Forced : No

Text
ID : 3
Format : PGS
Codec ID : S_HDMV/PGS
Codec ID/Info : Picture based subtitle format used on BDs/HD-DVDs
Duration : 35 min 30 s
Bit rate : 23.4 kb/s
Count of elements : 996
Stream size : 5.94 MiB (0%)
Title : English (SDH)
Language : English
Default : No
Forced : No

Menu
00:00:00.000 : en:Chapter 1
00:04:13.336 : en:Chapter 2
00:08:58.997 : en:Chapter 3
00:20:31.272 : en:Chapter 4
00:23:49.094 : en:Chapter 5
00:30:03.135 : en:Chapter 6
00:34:12.092 : en:Chapter 7





Castle Rock S02E08


Castle Rock S02E08


Castle Rock S02E08


Castle Rock S02E08


Castle Rock S02E08

All episodes