Index
# A B C D E F G H I J K L M N O P Q R S T U V W Y Z
Tags
Language
Tags

Featured TV Shows


Cat People S01E05

Posted By: Tavaz
720p (HD) / WEBRip IMDb
Cat People S01E05

Cat People S01E05
WEBRip | MKV | 1280x720 | English | H264 @ 2366 kbps | E-AC-3 @ 448 kbps | 33 min 18 s | 689 MiB
Subtitles: ภาษาไทย, Hrvatski, Français, tiếng Việt, Español, Magyar, 日本語, עברית, 한국어, Ελληνικά, Nederlands, Dansk, Bahasa Indonesia, Bokmål, 中文, Suomi, Polski, Türkçe, English, Română, العربية, Deutsch, Svenska, Italiano, Português, Čeština
Genre: Horror


After years of separation, Irina and her minister brother, Paul, reunite in New Orleans in this erotic tale of the supernatural. When zoologists capture a wild panther, Irina is drawn to the cat – and the zoo curator is drawn to her. Soon, Irina's brother will have to reveal the family secret: that when sexually aroused, they turn into predatory jungle cats.

e22a25323022402e82578ab2c871c338.mkv (688.6 MB)



General
Unique ID : 271627973445835575557982085587855986556 (0xCC59A51040D7CE8C298CD9AC7423CF7C)
Complete name : ./e22a25323022402e82578ab2c871c338.mkv
Format : Matroska
Format version : Version 4 / Version 2
File size : 689 MiB
Duration : 33 min 18 s
Overall bit rate mode : Variable
Overall bit rate : 2 890 kb/s
Writing application : mkvmerge v66.0.0 ('Josie') 64-bit
Writing library : libebml v1.4.2 + libmatroska v1.6.4

Video
ID : 1
Format : AVC
Format/Info : Advanced Video Codec
Format profile : Main@L3.1
Format settings : CABAC / 3 Ref Frames
Format settings, CABAC : Yes
Format settings, RefFrames : 3 frames
Codec ID : V_MPEG4/ISO/AVC
Duration : 33 min 18 s
Bit rate mode : Variable
Bit rate : 2 366 kb/s
Maximum bit rate : 4 515 kb/s
Width : 1 280 pixels
Height : 720 pixels
Display aspect ratio : 16:9
Frame rate mode : Constant
Frame rate : 23.976 (24000/1001) FPS
Color space : YUV
Chroma subsampling : 4:2:0
Bit depth : 8 bits
Scan type : Progressive
Bits/(Pixel*Frame) : 0.107
Stream size : 580 MiB (84%)
Writing library : x264 core 148 r2722 1b0121b
Encoding settings : cabac=1 / ref=3 / deblock=1:0:0 / analyse=0x1:0x111 / me=umh / subme=10 / psy=1 / psy_rd=1.00:0.00 / mixed_ref=1 / me_range=24 / chroma_me=1 / trellis=2 / 8x8dct=0 / cqm=0 / deadzone=21,11 / fast_pskip=1 / chroma_qp_offset=-2 / threads=8 / lookahead_threads=1 / sliced_threads=0 / nr=0 / decimate=1 / interlaced=0 / bluray_compat=0 / stitchable=1 / constrained_intra=0 / bframes=2 / b_pyramid=0 / b_adapt=2 / b_bias=0 / direct=3 / weightb=1 / open_gop=0 / weightp=2 / keyint=250 / keyint_min=23 / scenecut=0 / intra_refresh=0 / rc_lookahead=48 / rc=2pass / mbtree=1 / bitrate=2366 / ratetol=1.0 / qcomp=0.50 / qpmin=6 / qpmax=51 / qpstep=4 / cplxblur=20.0 / qblur=0.5 / vbv_maxrate=4515 / vbv_bufsize=6020 / nal_hrd=vbr / filler=0 / ip_ratio=1.40 / aq=1:1.00
Language : English
Default : Yes
Forced : No

Audio
ID : 2
Format : E-AC-3
Format/Info : Enhanced Audio Coding 3
Format settings, Endianness : Big
Codec ID : A_EAC3
Duration : 33 min 18 s
Bit rate mode : Constant
Bit rate : 448 kb/s
Channel(s) : 6 channels
Channel positions : Front: L C R, Side: L R, LFE
Sampling rate : 48.0 kHz
Frame rate : 187.500 FPS (256 SPF)
Compression mode : Lossy
Stream size : 107 MiB (16%)
Language : English
Service kind : Complete Main
Default : Yes
Forced : No

Text #1
ID : 3
Format : UTF-8
Codec ID : S_TEXT/UTF8
Codec ID/Info : UTF-8 Plain Text
Duration : 23 min 56 s
Bit rate : 1 b/s
Count of elements : 8
Stream size : 230 Bytes (0%)
Title : English (forced)
Language : English
Default : Yes
Forced : Yes

Text #2
ID : 4
Format : UTF-8
Codec ID : S_TEXT/UTF8
Codec ID/Info : UTF-8 Plain Text
Duration : 31 min 39 s
Bit rate : 105 b/s
Count of elements : 565
Stream size : 24.5 KiB (0%)
Title : English (SDH)
Language : English
Default : No
Forced : No

Text #3
ID : 5
Format : UTF-8
Codec ID : S_TEXT/UTF8
Codec ID/Info : UTF-8 Plain Text
Duration : 32 min 0 s
Bit rate : 145 b/s
Count of elements : 537
Stream size : 34.2 KiB (0%)
Title : Arabic
Language : Arabic
Default : No
Forced : No

Text #4
ID : 6
Format : UTF-8
Codec ID : S_TEXT/UTF8
Codec ID/Info : UTF-8 Plain Text
Duration : 31 min 57 s
Bit rate : 85 b/s
Count of elements : 481
Stream size : 20.0 KiB (0%)
Title : Czech
Language : Czech
Default : No
Forced : No

Text #5
ID : 7
Format : UTF-8
Codec ID : S_TEXT/UTF8
Codec ID/Info : UTF-8 Plain Text
Duration : 32 min 0 s
Bit rate : 81 b/s
Count of elements : 490
Stream size : 19.2 KiB (0%)
Title : Danish
Language : Danish
Default : No
Forced : No

Text #6
ID : 8
Format : UTF-8
Codec ID : S_TEXT/UTF8
Codec ID/Info : UTF-8 Plain Text
Duration : 31 min 31 s
Bit rate : 104 b/s
Count of elements : 536
Stream size : 24.2 KiB (0%)
Title : German
Language : German
Default : No
Forced : No

Text #7
ID : 9
Format : UTF-8
Codec ID : S_TEXT/UTF8
Codec ID/Info : UTF-8 Plain Text
Duration : 32 min 0 s
Bit rate : 133 b/s
Count of elements : 517
Stream size : 31.2 KiB (0%)
Title : Greek
Language : Greek
Default : No
Forced : No

Text #8
ID : 10
Format : UTF-8
Codec ID : S_TEXT/UTF8
Codec ID/Info : UTF-8 Plain Text
Duration : 31 min 59 s
Bit rate : 85 b/s
Count of elements : 507
Stream size : 20.0 KiB (0%)
Title : Spanish
Language : Spanish
Default : No
Forced : No

Text #9
ID : 11
Format : UTF-8
Codec ID : S_TEXT/UTF8
Codec ID/Info : UTF-8 Plain Text
Duration : 32 min 0 s
Bit rate : 86 b/s
Count of elements : 497
Stream size : 20.2 KiB (0%)
Title : Finnish
Language : Finnish
Default : No
Forced : No

Text #10
ID : 12
Format : UTF-8
Codec ID : S_TEXT/UTF8
Codec ID/Info : UTF-8 Plain Text
Duration : 32 min 0 s
Bit rate : 85 b/s
Count of elements : 531
Stream size : 20.0 KiB (0%)
Title : French
Language : French
Default : No
Forced : No

Text #11
ID : 13
Format : UTF-8
Codec ID : S_TEXT/UTF8
Codec ID/Info : UTF-8 Plain Text
Duration : 31 min 56 s
Bit rate : 137 b/s
Count of elements : 544
Stream size : 32.3 KiB (0%)
Title : Hebrew
Language : Hebrew
Default : No
Forced : No

Text #12
ID : 14
Format : UTF-8
Codec ID : S_TEXT/UTF8
Codec ID/Info : UTF-8 Plain Text
Duration : 31 min 57 s
Bit rate : 77 b/s
Count of elements : 518
Stream size : 18.0 KiB (0%)
Title : Croatian
Language : Croatian
Default : No
Forced : No

Text #13
ID : 15
Format : UTF-8
Codec ID : S_TEXT/UTF8
Codec ID/Info : UTF-8 Plain Text
Duration : 32 min 0 s
Bit rate : 89 b/s
Count of elements : 520
Stream size : 21.0 KiB (0%)
Title : Hungarian
Language : Hungarian
Default : No
Forced : No

Text #14
ID : 16
Format : UTF-8
Codec ID : S_TEXT/UTF8
Codec ID/Info : UTF-8 Plain Text
Duration : 31 min 57 s
Bit rate : 87 b/s
Count of elements : 536
Stream size : 20.5 KiB (0%)
Title : Indonesian
Language : Indonesian
Default : No
Forced : No

Text #15
ID : 17
Format : UTF-8
Codec ID : S_TEXT/UTF8
Codec ID/Info : UTF-8 Plain Text
Duration : 32 min 0 s
Bit rate : 86 b/s
Count of elements : 543
Stream size : 20.2 KiB (0%)
Title : Italian
Language : Italian
Default : No
Forced : No

Text #16
ID : 18
Format : UTF-8
Codec ID : S_TEXT/UTF8
Codec ID/Info : UTF-8 Plain Text
Duration : 31 min 58 s
Bit rate : 92 b/s
Count of elements : 567
Stream size : 21.7 KiB (0%)
Title : Japanese
Language : Japanese
Default : No
Forced : No

Text #17
ID : 19
Format : UTF-8
Codec ID : S_TEXT/UTF8
Codec ID/Info : UTF-8 Plain Text
Duration : 31 min 57 s
Bit rate : 102 b/s
Count of elements : 551
Stream size : 24.1 KiB (0%)
Title : Korean
Language : Korean
Default : No
Forced : No

Text #18
ID : 20
Format : UTF-8
Codec ID : S_TEXT/UTF8
Codec ID/Info : UTF-8 Plain Text
Duration : 31 min 31 s
Bit rate : 82 b/s
Count of elements : 545
Stream size : 19.0 KiB (0%)
Title : Malay
Language : Malay
Default : No
Forced : No

Text #19
ID : 21
Format : UTF-8
Codec ID : S_TEXT/UTF8
Codec ID/Info : UTF-8 Plain Text
Duration : 32 min 0 s
Bit rate : 78 b/s
Count of elements : 469
Stream size : 18.5 KiB (0%)
Title : Norwegian
Language : Norwegian Bokmal
Default : No
Forced : No

Text #20
ID : 22
Format : UTF-8
Codec ID : S_TEXT/UTF8
Codec ID/Info : UTF-8 Plain Text
Duration : 32 min 0 s
Bit rate : 87 b/s
Count of elements : 464
Stream size : 20.6 KiB (0%)
Title : Dutch
Language : Dutch
Default : No
Forced : No

Text #21
ID : 23
Format : UTF-8
Codec ID : S_TEXT/UTF8
Codec ID/Info : UTF-8 Plain Text
Duration : 31 min 57 s
Bit rate : 77 b/s
Count of elements : 656
Stream size : 18.1 KiB (0%)
Title : Polish
Language : Polish
Default : No
Forced : No

Text #22
ID : 24
Format : UTF-8
Codec ID : S_TEXT/UTF8
Codec ID/Info : UTF-8 Plain Text
Duration : 32 min 1 s
Bit rate : 85 b/s
Count of elements : 542
Stream size : 20.1 KiB (0%)
Title : Brazilian Portuguese
Language : Portuguese
Default : No
Forced : No

Text #23
ID : 25
Format : UTF-8
Codec ID : S_TEXT/UTF8
Codec ID/Info : UTF-8 Plain Text
Duration : 31 min 57 s
Bit rate : 84 b/s
Count of elements : 514
Stream size : 19.8 KiB (0%)
Title : Portuguese
Language : Portuguese
Default : No
Forced : No

Text #24
ID : 26
Format : UTF-8
Codec ID : S_TEXT/UTF8
Codec ID/Info : UTF-8 Plain Text
Duration : 32 min 0 s
Bit rate : 83 b/s
Count of elements : 503
Stream size : 19.6 KiB (0%)
Title : Romanian
Language : Romanian
Default : No
Forced : No

Text #25
ID : 27
Format : UTF-8
Codec ID : S_TEXT/UTF8
Codec ID/Info : UTF-8 Plain Text
Duration : 31 min 59 s
Bit rate : 86 b/s
Count of elements : 451
Stream size : 20.3 KiB (0%)
Title : Swedish
Language : Swedish
Default : No
Forced : No

Text #26
ID : 28
Format : UTF-8
Codec ID : S_TEXT/UTF8
Codec ID/Info : UTF-8 Plain Text
Duration : 32 min 0 s
Bit rate : 202 b/s
Count of elements : 545
Stream size : 47.6 KiB (0%)
Title : Thai
Language : Thai
Default : No
Forced : No

Text #27
ID : 29
Format : UTF-8
Codec ID : S_TEXT/UTF8
Codec ID/Info : UTF-8 Plain Text
Duration : 32 min 0 s
Bit rate : 92 b/s
Count of elements : 515
Stream size : 21.7 KiB (0%)
Title : Turkish
Language : Turkish
Default : No
Forced : No

Text #28
ID : 30
Format : UTF-8
Codec ID : S_TEXT/UTF8
Codec ID/Info : UTF-8 Plain Text
Duration : 32 min 0 s
Bit rate : 108 b/s
Count of elements : 513
Stream size : 25.4 KiB (0%)
Title : Vietnamese
Language : Vietnamese
Default : No
Forced : No

Text #29
ID : 31
Format : UTF-8
Codec ID : S_TEXT/UTF8
Codec ID/Info : UTF-8 Plain Text
Duration : 32 min 0 s
Bit rate : 84 b/s
Count of elements : 548
Stream size : 19.9 KiB (0%)
Title : Simplified Chinese
Language : Chinese
Default : No
Forced : No

Text #30
ID : 32
Format : UTF-8
Codec ID : S_TEXT/UTF8
Codec ID/Info : UTF-8 Plain Text
Duration : 32 min 0 s
Bit rate : 73 b/s
Count of elements : 542
Stream size : 17.3 KiB (0%)
Title : Traditional Chinese
Language : Chinese
Default : No
Forced : No





Cat People S01E05


Cat People S01E05


Cat People S01E05


Cat People S01E05


Cat People S01E05

All episodes