Featured TV Shows


Catch-22 S01E01

Posted By: Tavaz
720p (HD) / WEBRip IMDb
Catch-22 S01E01

Catch-22 S01E01
WEB-DL | MKV | 1280x720 | English | H264 @ 2798 kbps | AAC @ 64 kbps | 45 min 20 s | 929 MiB
Subtitles: English
Genre: Comedy, Drama


Set in Italy during World War II, the series follows the story of the incomparable, artful dodger Yossarian, a bombardier for the U.S. Air Force, who is furious because thousands of people he has never met are trying to kill him. But his real problem is not the enemy, but rather his own army which keeps increasing the number of missions the men must fly to complete their service.

7a16d3223121432e903dc7cee278e023.mkv (928.9 MB)



General
Unique ID : 167933446807872592275556882062167374144 (0x7E56CE2DDA15574663EAE441DBB1F940)
Complete name : ./7a16d3223121432e903dc7cee278e023.mkv
Format : Matroska
Format version : Version 4 / Version 2
File size : 929 MiB
Duration : 45 min 20 s
Overall bit rate : 2 864 kb/s
Encoded date : UTC 2019-05-17 19:53:42
Writing application : mkvmerge v33.1.0 ('Primrose') 64-bit
Writing library : libebml v1.3.7 + libmatroska v1.5.0

Video
ID : 1
Format : AVC
Format/Info : Advanced Video Codec
Format profile : High@L3.1
Format settings : CABAC / 5 Ref Frames
Format settings, CABAC : Yes
Format settings, RefFrames : 5 frames
Codec ID : V_MPEG4/ISO/AVC
Duration : 45 min 20 s
Bit rate : 2 798 kb/s
Width : 1 280 pixels
Height : 720 pixels
Display aspect ratio : 16:9
Frame rate mode : Constant
Frame rate : 23.976 (24000/1001) FPS
Color space : YUV
Chroma subsampling : 4:2:0
Bit depth : 8 bits
Scan type : Progressive
Bits/(Pixel*Frame) : 0.127
Stream size : 907 MiB (98%)
Default : Yes
Forced : No

Audio
ID : 2
Format : AAC
Format/Info : Advanced Audio Codec
Format profile : HE-AAC / LC
Format settings : Explicit
Codec ID : A_AAC-2
Duration : 45 min 20 s
Bit rate : 64.0 kb/s
Channel(s) : 2 channels
Channel positions : Front: L R
Sampling rate : 48.0 kHz / 24.0 kHz
Frame rate : 23.438 FPS (1024 SPF)
Compression mode : Lossy
Stream size : 20.8 MiB (2%)
Language : English
Default : Yes
Forced : No

Text
ID : 3
Format : UTF-8
Codec ID : S_TEXT/UTF8
Codec ID/Info : UTF-8 Plain Text
Duration : 45 min 15 s
Bit rate : 98 b/s
Count of elements : 995
Stream size : 32.8 KiB (0%)
Title : English (SDH)
Language : English
Default : No
Forced : No





Catch-22 S01E01


Catch-22 S01E01


Catch-22 S01E01


Catch-22 S01E01


Catch-22 S01E01

All episodes