Featured TV Shows


Catch-22 S01E03

Posted By: Tavaz
720p (HD) / WEB-DL IMDb
Catch-22 S01E03

Catch-22 S01E03
WEB-DL | MKV | 1280x720 | English | H264 @ 2828 kbps | AAC @ 63 kbps | 42 min 6 s | 872 MiB
Subtitles: English
Genre: Comedy, Drama


Set in Italy during World War II, the series follows the story of the incomparable, artful dodger Yossarian, a bombardier for the U.S. Air Force, who is furious because thousands of people he has never met are trying to kill him. But his real problem is not the enemy, but rather his own army which keeps increasing the number of missions the men must fly to complete their service.

94028dbdc6f3499a9f183c55bc63d26c.mkv (871.5 MB)



General
Unique ID : 182790623691082874158415148737780892508 (0x8984318DEF0BE7869407BBD0BC59C35C)
Complete name : ./94028dbdc6f3499a9f183c55bc63d26c.mkv
Format : Matroska
Format version : Version 4 / Version 2
File size : 872 MiB
Duration : 42 min 6 s
Overall bit rate : 2 894 kb/s
Encoded date : UTC 2019-05-17 19:54:56
Writing application : mkvmerge v33.1.0 ('Primrose') 64-bit
Writing library : libebml v1.3.7 + libmatroska v1.5.0

Video
ID : 1
Format : AVC
Format/Info : Advanced Video Codec
Format profile : High@L3.1
Format settings : CABAC / 5 Ref Frames
Format settings, CABAC : Yes
Format settings, RefFrames : 5 frames
Codec ID : V_MPEG4/ISO/AVC
Duration : 42 min 6 s
Bit rate : 2 828 kb/s
Width : 1 280 pixels
Height : 720 pixels
Display aspect ratio : 16:9
Frame rate mode : Constant
Frame rate : 23.976 (24000/1001) FPS
Color space : YUV
Chroma subsampling : 4:2:0
Bit depth : 8 bits
Scan type : Progressive
Bits/(Pixel*Frame) : 0.128
Stream size : 852 MiB (98%)
Default : Yes
Forced : No

Audio
ID : 2
Format : AAC
Format/Info : Advanced Audio Codec
Format profile : HE-AAC / LC
Format settings : Explicit
Codec ID : A_AAC-2
Duration : 42 min 6 s
Bit rate : 64.0 kb/s
Channel(s) : 2 channels
Channel positions : Front: L R
Sampling rate : 48.0 kHz / 24.0 kHz
Frame rate : 23.438 FPS (1024 SPF)
Compression mode : Lossy
Stream size : 19.3 MiB (2%)
Language : English
Default : Yes
Forced : No

Text
ID : 3
Format : UTF-8
Codec ID : S_TEXT/UTF8
Codec ID/Info : UTF-8 Plain Text
Duration : 39 min 19 s
Bit rate : 85 b/s
Count of elements : 748
Stream size : 24.6 KiB (0%)
Title : English (SDH)
Language : English
Default : No
Forced : No





Catch-22 S01E03


Catch-22 S01E03


Catch-22 S01E03


Catch-22 S01E03


Catch-22 S01E03

All episodes