Featured TV Shows


Catch-22 S01E04

Posted By: Tavaz
720p (HD) / WEBRip IMDb
Catch-22 S01E04

Catch-22 S01E04
WEB-DL | MKV | 1280x720 | English | H264 @ 5286 kbps | E-AC-3 @ 640 kbps | 43 min 22 s | 1.80 GiB
Subtitles: English
Genre: Comedy, Drama


Set in Italy during World War II, the series follows the story of the incomparable, artful dodger Yossarian, a bombardier for the U.S. Air Force, who is furious because thousands of people he has never met are trying to kill him. But his real problem is not the enemy, but rather his own army which keeps increasing the number of missions the men must fly to complete their service.

9793e30de4c549238b74cf80d470e7b3.mkv (1.8 GB)



General
Unique ID : 1365993093350887237993818757458881569 (0x10714A8C535312842A106C3F368EC21)
Complete name : ./9793e30de4c549238b74cf80d470e7b3.mkv
Format : Matroska
Format version : Version 4 / Version 2
File size : 1.80 GiB
Duration : 43 min 22 s
Overall bit rate : 5 928 kb/s
Encoded date : UTC 2019-06-18 03:05:16
Writing application : mkvmerge v21.0.0 ('Tardigrades Will Inherit The Earth') 64-bit
Writing library : libebml v1.3.5 + libmatroska v1.4.8

Video
ID : 1
Format : AVC
Format/Info : Advanced Video Codec
Format profile : High@L3.1
Format settings : CABAC / 4 Ref Frames
Format settings, CABAC : Yes
Format settings, RefFrames : 4 frames
Codec ID : V_MPEG4/ISO/AVC
Duration : 43 min 22 s
Bit rate mode : Constant
Bit rate : 5 286 kb/s
Nominal bit rate : 6 000 kb/s
Width : 1 280 pixels
Height : 720 pixels
Display aspect ratio : 16:9
Frame rate mode : Constant
Frame rate : 23.976 (24000/1001) FPS
Color space : YUV
Chroma subsampling : 4:2:0
Bit depth : 8 bits
Scan type : Progressive
Bits/(Pixel*Frame) : 0.239
Stream size : 1.60 GiB (89%)
Default : Yes
Forced : No
Color range : Limited
Color primaries : BT.709
Transfer characteristics : BT.709
Matrix coefficients : BT.709

Audio
ID : 2
Format : E-AC-3
Format/Info : Enhanced Audio Coding 3
Format settings, Endianness : Big
Codec ID : A_EAC3
Duration : 43 min 22 s
Bit rate mode : Constant
Bit rate : 640 kb/s
Channel(s) : 6 channels
Channel positions : Front: L C R, Side: L R, LFE
Sampling rate : 48.0 kHz
Frame rate : 187.500 FPS (256 SPF)
Compression mode : Lossy
Stream size : 199 MiB (11%)
Language : English
Service kind : Complete Main
Default : Yes
Forced : No

Text #1
ID : 3
Format : UTF-8
Codec ID : S_TEXT/UTF8
Codec ID/Info : UTF-8 Plain Text
Duration : 39 min 45 s
Bit rate : 83 b/s
Count of elements : 780
Stream size : 24.2 KiB (0%)
Language : English
Default : No
Forced : No

Text #2
ID : 4
Format : UTF-8
Codec ID : S_TEXT/UTF8
Codec ID/Info : UTF-8 Plain Text
Duration : 41 min 23 s
Bit rate : 85 b/s
Count of elements : 893
Stream size : 26.0 KiB (0%)
Title : SDH
Language : English
Default : No
Forced : No





Catch-22 S01E04


Catch-22 S01E04


Catch-22 S01E04


Catch-22 S01E04


Catch-22 S01E04

All episodes