Featured TV Shows


Catch-22 S01E05

Posted By: Tavaz
720p (HD) / WEB-DL IMDb
Catch-22 S01E05

Catch-22 S01E05
WEB-DL | MKV | 1280x720 | English | H264 @ 2132 kbps | AAC @ 63 kbps | 40 min 42 s | 640 MiB
Subtitles: English
Genre: Comedy, Drama


Set in Italy during World War II, the series follows the story of the incomparable, artful dodger Yossarian, a bombardier for the U.S. Air Force, who is furious because thousands of people he has never met are trying to kill him. But his real problem is not the enemy, but rather his own army which keeps increasing the number of missions the men must fly to complete their service.

1e1c39c6257143029c1ecc830c3418f7.mkv (640.0 MB)



General
Unique ID : 223562771682032639742992701597775681339 (0xA8309FA715BC6D9BBE5249CEC499D73B)
Complete name : ./1e1c39c6257143029c1ecc830c3418f7.mkv
Format : Matroska
Format version : Version 4 / Version 2
File size : 640 MiB
Duration : 40 min 42 s
Overall bit rate : 2 198 kb/s
Encoded date : UTC 2019-05-17 19:56:11
Writing application : mkvmerge v33.1.0 ('Primrose') 64-bit
Writing library : libebml v1.3.7 + libmatroska v1.5.0

Video
ID : 1
Format : AVC
Format/Info : Advanced Video Codec
Format profile : High@L3.1
Format settings : CABAC / 5 Ref Frames
Format settings, CABAC : Yes
Format settings, RefFrames : 5 frames
Codec ID : V_MPEG4/ISO/AVC
Duration : 40 min 42 s
Bit rate : 2 132 kb/s
Width : 1 280 pixels
Height : 720 pixels
Display aspect ratio : 16:9
Frame rate mode : Constant
Frame rate : 23.976 (24000/1001) FPS
Color space : YUV
Chroma subsampling : 4:2:0
Bit depth : 8 bits
Scan type : Progressive
Bits/(Pixel*Frame) : 0.096
Stream size : 621 MiB (97%)
Default : Yes
Forced : No

Audio
ID : 2
Format : AAC
Format/Info : Advanced Audio Codec
Format profile : HE-AAC / LC
Format settings : Explicit
Codec ID : A_AAC-2
Duration : 40 min 42 s
Bit rate : 64.0 kb/s
Channel(s) : 2 channels
Channel positions : Front: L R
Sampling rate : 48.0 kHz / 24.0 kHz
Frame rate : 23.438 FPS (1024 SPF)
Compression mode : Lossy
Stream size : 18.6 MiB (3%)
Language : English
Default : Yes
Forced : No

Text
ID : 3
Format : UTF-8
Codec ID : S_TEXT/UTF8
Codec ID/Info : UTF-8 Plain Text
Duration : 40 min 36 s
Bit rate : 68 b/s
Count of elements : 662
Stream size : 20.5 KiB (0%)
Title : English (SDH)
Language : English
Default : No
Forced : No





Catch-22 S01E05


Catch-22 S01E05


Catch-22 S01E05


Catch-22 S01E05


Catch-22 S01E05

All episodes