Featured TV Shows


Channel Zero S04E01

Posted By: Tavaz
1080p (FullHD) / WEBRip IMDb
Channel Zero S04E01

Channel Zero S04E01
WEBRip | MKV | 1920x1080 | French / English | H264 @ 9301 kbps | E-AC-3 @ 640 kbps | 43 min 40 s | 3.23 GiB
Subtitles: French, English
Genre: Drama


A horror anthology series inspired by “Creepypasta” online tales.

abfe3b062ad04a0db6197204a7278ad1.mkv (3.2 GB)



General
Unique ID : 144318279210368281867719877468411647015 (0x6C92B0860B9750854ADFA6A517C7D427)
Complete name : ./abfe3b062ad04a0db6197204a7278ad1.mkv
Format : Matroska
Format version : Version 4 / Version 2
File size : 3.23 GiB
Duration : 43 min 40 s
Overall bit rate : 10.6 Mb/s
Encoded date : UTC 2020-01-01 23:42:08
Writing application : mkvmerge v41.0.0 ('Smarra') 64-bit
Writing library : libebml v1.3.9 + libmatroska v1.5.2

Video
ID : 1
Format : AVC
Format/Info : Advanced Video Codec
Format profile : High@L4
Format settings : CABAC / 4 Ref Frames
Format settings, CABAC : Yes
Format settings, RefFrames : 4 frames
Codec ID : V_MPEG4/ISO/AVC
Duration : 43 min 40 s
Bit rate mode : Constant
Bit rate : 9 302 kb/s
Nominal bit rate : 10 000 kb/s
Width : 1 920 pixels
Height : 1 080 pixels
Display aspect ratio : 16:9
Frame rate mode : Constant
Frame rate : 23.976 (24000/1001) FPS
Color space : YUV
Chroma subsampling : 4:2:0
Bit depth : 8 bits
Scan type : Progressive
Bits/(Pixel*Frame) : 0.187
Stream size : 2.84 GiB (88%)
Default : Yes
Forced : No
Color range : Limited
Color primaries : BT.709
Transfer characteristics : BT.709
Matrix coefficients : BT.709

Audio #1
ID : 2
Format : E-AC-3
Format/Info : Enhanced Audio Coding 3
Format settings, Endianness : Big
Codec ID : A_EAC3
Duration : 43 min 40 s
Bit rate mode : Constant
Bit rate : 640 kb/s
Channel(s) : 6 channels
Channel positions : Front: L C R, Side: L R, LFE
Sampling rate : 48.0 kHz
Frame rate : 187.500 FPS (256 SPF)
Compression mode : Lossy
Stream size : 200 MiB (6%)
Title : French
Language : French
Service kind : Complete Main
Default : Yes
Forced : No

Audio #2
ID : 3
Format : E-AC-3
Format/Info : Enhanced Audio Coding 3
Format settings, Endianness : Big
Codec ID : A_EAC3
Duration : 43 min 40 s
Bit rate mode : Constant
Bit rate : 640 kb/s
Channel(s) : 6 channels
Channel positions : Front: L C R, Side: L R, LFE
Sampling rate : 48.0 kHz
Frame rate : 187.500 FPS (256 SPF)
Compression mode : Lossy
Stream size : 200 MiB (6%)
Title : English
Language : English
Service kind : Complete Main
Default : No
Forced : No

Text #1
ID : 4
Format : UTF-8
Codec ID : S_TEXT/UTF8
Codec ID/Info : UTF-8 Plain Text
Duration : 2 s 210 ms
Bit rate : 228 b/s
Count of elements : 1
Stream size : 63.0 Bytes (0%)
Title : French (Forced)
Language : French
Default : Yes
Forced : Yes

Text #2
ID : 5
Format : UTF-8
Codec ID : S_TEXT/UTF8
Codec ID/Info : UTF-8 Plain Text
Duration : 42 min 31 s
Bit rate : 42 b/s
Count of elements : 456
Stream size : 13.3 KiB (0%)
Title : French
Language : French
Default : No
Forced : No

Text #3
ID : 6
Format : UTF-8
Codec ID : S_TEXT/UTF8
Codec ID/Info : UTF-8 Plain Text
Duration : 43 min 30 s
Bit rate : 55 b/s
Count of elements : 711
Stream size : 17.8 KiB (0%)
Title : English
Language : English
Default : No
Forced : No

Text #4
ID : 7
Format : UTF-8
Codec ID : S_TEXT/UTF8
Codec ID/Info : UTF-8 Plain Text
Duration : 43 min 30 s
Bit rate : 55 b/s
Count of elements : 711
Stream size : 17.8 KiB (0%)
Title : English (SDH)
Language : English
Default : No
Forced : No





Channel Zero S04E01


Channel Zero S04E01


Channel Zero S04E01


Channel Zero S04E01


Channel Zero S04E01

All episodes