Featured TV Shows


Channel Zero S04E04

Posted By: Tavaz
720p (HD) / HDTV IMDb
Channel Zero S04E04

Channel Zero S04E04
HDTV | MKV | 1280x720 | English | H264 @ 2296 kbps | MPEG Audio @ 192 kbps | 41 min 21 s | 751 MiB
Genre: Drame

De retour dans sa ville natale, un psychologue enquête sur les mystérieuses disparitions de son frère jumeau et de quelques autres enfants, dans les années 1980, lesquelles seraient liées à une émission de télé locale pour la jeunesse diffusée à l'époque. Le programme aurait un rôle à jouer dans les événements meurtriers et cauchemardesques de leur enfance.

Channel.Zero.S04E04.FRENCH.720p.HDTV.x264-SH0W.mkv (751.1 MB)



General
Complete name : ./Channel.Zero.S04E04.FRENCH.720p.HDTV.x264-SH0W.mkv
Format : Matroska
Format version : Version 2
File size : 751 MiB
Duration : 41 min 21 s
Overall bit rate : 2 539 kb/s
Writing application : x264.exe
Writing library : mkv2rls x264-tv version built on 2016.10.12

Video
ID : 1
Format : AVC
Format/Info : Advanced Video Codec
Format profile : High@L4.1
Format settings : CABAC / 8 Ref Frames
Format settings, CABAC : Yes
Format settings, RefFrames : 8 frames
Codec ID : V_MPEG4/ISO/AVC
Duration : 41 min 21 s
Bit rate : 2 296 kb/s
Width : 1 280 pixels
Height : 720 pixels
Display aspect ratio : 16:9
Frame rate mode : Constant
Frame rate : 25.000 FPS
Color space : YUV
Chroma subsampling : 4:2:0
Bit depth : 8 bits
Scan type : Progressive
Bits/(Pixel*Frame) : 0.100
Stream size : 679 MiB (90%)
Writing library : x264 core 157 r2935 545de2f
Encoding settings : cabac=1 / ref=8 / deblock=1:0:0 / analyse=0x3:0x133 / me=umh / subme=10 / psy=1 / psy_rd=1.00:0.00 / mixed_ref=1 / me_range=32 / chroma_me=1 / trellis=2 / 8x8dct=1 / cqm=0 / deadzone=21,11 / fast_pskip=0 / chroma_qp_offset=-2 / threads=22 / lookahead_threads=1 / sliced_threads=0 / nr=0 / decimate=1 / interlaced=0 / bluray_compat=0 / constrained_intra=0 / bframes=3 / b_pyramid=2 / b_adapt=2 / b_bias=0 / direct=3 / weightb=1 / open_gop=0 / weightp=2 / keyint=250 / keyint_min=25 / scenecut=40 / intra_refresh=0 / rc_lookahead=60 / rc=crf / mbtree=1 / crf=18.0 / qcomp=0.60 / qpmin=0 / qpmax=69 / qpstep=4 / ip_ratio=1.40 / aq=1:1.00
Language : English
Default : Yes
Forced : No
Color range : Limited
Matrix coefficients : BT.709

Audio
ID : 2
Format : MPEG Audio
Format version : Version 1
Format profile : Layer 2
Codec ID : A_MPEG/L2
Codec ID/Hint : MP2
Duration : 41 min 21 s
Bit rate mode : Constant
Bit rate : 192 kb/s
Channel(s) : 2 channels
Sampling rate : 48.0 kHz
Compression mode : Lossy
Stream size : 56.8 MiB (8%)
Language : English
Default : Yes
Forced : No





Channel Zero S04E04


Channel Zero S04E04


Channel Zero S04E04


Channel Zero S04E04


Channel Zero S04E04

All episodes