Featured TV Shows


Chernobyl S01E01

Posted By: Tavaz
1080p (FullHD) / BDRip IMDb
Chernobyl S01E01

Chernobyl S01E01
WEB-DL | MKV | 1920x960 | English / Deutsch | H264 @ 10052 kbps | DTS @ 1509 kbps | 56 min 29 s | 5.26 GiB
Subtitles: English, Deutsch
Genre: Drama


Im April 1986 kommt es im ukrainischen Atommeiler Tschernobyl zu einer katastrophalen Kernschmelze. Feuerwehr und Ersthelfer geben alles, um den Unglücksort zu sichern und die Folgen des Ereignisses einzudämmen - doch diese sind weitreichend.

chernobyl.s01e01.german.dl.1080p.bluray.x264-excited.mkv (5.3 GB)
chernobyl.s01e01.german.dl.1080p.bluray.x264-excited-forced.idx (1.7 KB)
chernobyl.s01e01.german.dl.1080p.bluray.x264-excited-forced.sub (98.0 KB)
chernobyl.s01e01.german.dl.1080p.bluray.x264-excited-eng-forced.sub (124.0 KB)
chernobyl.s01e01.german.dl.1080p.bluray.x264-excited.sub (3.5 MB)
chernobyl.s01e01.german.dl.1080p.bluray.x264-excited.idx (22.1 KB)
chernobyl.s01e01.german.dl.1080p.bluray.x264-excited-eng-forced.idx (2.1 KB)



General
Complete name : ./chernobyl.s01e01.german.dl.1080p.bluray.x264-excited.mkv
Format : Matroska
Format version : Version 2
File size : 5.26 GiB
Duration : 56 min 29 s
Overall bit rate : 13.3 Mb/s
Writing application : mkvmerge v4.1.1 ('Bouncin' Back') built on Jul 3 2010 22:54:08
Writing library : libebml v1.0.0 + libmatroska v1.0

Video
ID : 1
Format : AVC
Format/Info : Advanced Video Codec
Format profile : High@L4.1
Format settings : CABAC / 4 Ref Frames
Format settings, CABAC : Yes
Format settings, RefFrames : 4 frames
Codec ID : V_MPEG4/ISO/AVC
Duration : 56 min 29 s
Bit rate : 10.1 Mb/s
Width : 1 920 pixels
Height : 960 pixels
Display aspect ratio : 2.000
Frame rate mode : Constant
Frame rate : 25.000 FPS
Color space : YUV
Chroma subsampling : 4:2:0
Bit depth : 8 bits
Scan type : Progressive
Bits/(Pixel*Frame) : 0.218
Stream size : 3.97 GiB (75%)
Writing library : x264 core 157 r2969 d4099dd
Encoding settings : cabac=1 / ref=4 / deblock=1:-3:-3 / analyse=0x3:0x113 / me=umh / subme=8 / psy=1 / psy_rd=1.00:0.15 / mixed_ref=1 / me_range=16 / chroma_me=1 / trellis=2 / 8x8dct=1 / cqm=0 / deadzone=21,11 / fast_pskip=0 / chroma_qp_offset=-3 / threads=24 / lookahead_threads=4 / sliced_threads=0 / nr=0 / decimate=1 / interlaced=0 / bluray_compat=0 / constrained_intra=0 / bframes=3 / b_pyramid=2 / b_adapt=2 / b_bias=0 / direct=3 / weightb=1 / open_gop=0 / weightp=2 / keyint=250 / keyint_min=25 / scenecut=40 / intra_refresh=0 / rc_lookahead=50 / rc=crf / mbtree=1 / crf=19.0 / qcomp=0.60 / qpmin=10 / qpmax=69 / qpstep=4 / ip_ratio=1.40 / aq=1:1.00
Language : English
Default : Yes
Forced : No

Audio #1
ID : 2
Format : DTS
Format/Info : Digital Theater Systems
Mode : 16
Format settings, Endianness : Big
Codec ID : A_DTS
Duration : 56 min 29 s
Bit rate mode : Constant
Bit rate : 1 509 kb/s
Channel(s) : 6 channels
Channel positions : Front: L C R, Side: L R, LFE
Sampling rate : 48.0 kHz
Frame rate : 93.750 FPS (512 SPF)
Bit depth : 24 bits
Compression mode : Lossy
Stream size : 610 MiB (11%)
Language : German
Default : Yes
Forced : No

Audio #2
ID : 3
Format : DTS
Format/Info : Digital Theater Systems
Mode : 16
Format settings, Endianness : Big
Codec ID : A_DTS
Duration : 56 min 29 s
Bit rate mode : Constant
Bit rate : 1 509 kb/s
Channel(s) : 6 channels
Channel positions : Front: L C R, Side: L R, LFE
Sampling rate : 48.0 kHz
Frame rate : 93.750 FPS (512 SPF)
Bit depth : 24 bits
Compression mode : Lossy
Stream size : 610 MiB (11%)
Language : English
Default : No
Forced : No

Text #1
ID : 4
Format : UTF-8
Codec ID : S_TEXT/UTF8
Codec ID/Info : UTF-8 Plain Text
Language : German
Default : Yes
Forced : Yes

Text #2
ID : 5
Format : UTF-8
Codec ID : S_TEXT/UTF8
Codec ID/Info : UTF-8 Plain Text
Language : English
Default : No
Forced : No

Menu
00:00:00.000 : en:00:00:00.000
00:06:05.799 : en:00:06:05.799
00:14:36.880 : en:00:14:36.880
00:28:22.880 : en:00:28:22.880
00:38:32.800 : en:00:38:32.800
00:53:52.960 : en:00:53:52.960





Chernobyl S01E01


Chernobyl S01E01


Chernobyl S01E01


Chernobyl S01E01


Chernobyl S01E01

All episodes