Featured TV Shows


Chicago Fire S06E01

Posted By: Tavaz
1080p (FullHD) / WEB-DL IMDb
Chicago Fire S06E01

Chicago Fire S06E01
WEB-DL | MKV | 1920x1080 | English | H264 @ 11684 kbps | E-AC-3 @ 640 kbps | 40 min 29 s | 3.49 GiB
Subtitles: English
Genre: Dramma

Nessun lavoro è più stressante e pericoloso, ma al tempo stesso stimolante e coinvolgente di quello dei vigili del fuoco, soccorritori e paramedici della squadra di Chicago Firehouse 51. La squadra è formata da uomini e donne di eccezionale coraggio, pronti a buttarsi a capofitto nelle situazioni di estremo pericolo, quando tutti gli altri se la danno a gambe. Ma l'enorme responsabilità del loro lavoro comporta anche un pesante tributo a livello personale. Certo da una parte sono compensati da un'eccellente reputazione che fa crescere notevolmente il loro ego, ma dall'altra sono soggetti a una fortissima pressione quando, in una manciata di secondi si trovano a dover prendere decisioni da cui dipende la vita o la morte delle persone che stanno soccorrendo. Inoltre ogni volta si rischia di entrare in conflitto con le decisioni degli altri membri della squadra, con cui occorre operare in perfetta sintonia. Ogni volta che un membro della squadra incappa in un evento dalla tragica conclusione, viene sovrastato da un enorme senso di colpa e rimorso, difficile da elaborare e rimuovere. Quando poi è il momento di agire per soccorrere un compagno, ogni membro della squadra deve riuscire a mettere da parte la propria diversità di vedute, rischiando la propria vita per salvare senza alcuna esitazione quella altrui…

38a182e5d29f47eaa21979a0fa8a4d20.mkv (3.5 GB)



General
Unique ID : 291150678785215896275696085774619616754 (0xDB0994C05B00AF3F46E40DA210D3A5F2)
Complete name : ./38a182e5d29f47eaa21979a0fa8a4d20.mkv
Format : Matroska
Format version : Version 4 / Version 2
File size : 3.49 GiB
Duration : 40 min 29 s
Overall bit rate mode : Variable
Overall bit rate : 12.3 Mb/s
Encoded date : UTC 2017-09-29 13:14:44
Writing application : mkvmerge v15.0.0 ('Duel with the Devil') 64-bit
Writing library : libebml v1.3.5 + libmatroska v1.4.5

Video
ID : 1
Format : AVC
Format/Info : Advanced Video Codec
Format profile : High@L4
Format settings : CABAC / 4 Ref Frames
Format settings, CABAC : Yes
Format settings, RefFrames : 4 frames
Codec ID : V_MPEG4/ISO/AVC
Duration : 40 min 29 s
Bit rate mode : Variable
Bit rate : 11.7 Mb/s
Maximum bit rate : 15.0 Mb/s
Width : 1 920 pixels
Height : 1 080 pixels
Display aspect ratio : 16:9
Frame rate mode : Constant
Frame rate : 23.976 (24000/1001) FPS
Color space : YUV
Chroma subsampling : 4:2:0
Bit depth : 8 bits
Scan type : Progressive
Bits/(Pixel*Frame) : 0.235
Stream size : 3.31 GiB (95%)
Default : Yes
Forced : No
Color range : Limited
Color primaries : BT.709
Transfer characteristics : BT.709
Matrix coefficients : BT.709

Audio
ID : 2
Format : E-AC-3
Format/Info : Enhanced Audio Coding 3
Format settings, Endianness : Big
Codec ID : A_EAC3
Duration : 40 min 29 s
Bit rate mode : Constant
Bit rate : 640 kb/s
Channel(s) : 6 channels
Channel positions : Front: L C R, Side: L R, LFE
Sampling rate : 48.0 kHz
Frame rate : 187.500 FPS (256 SPF)
Compression mode : Lossy
Stream size : 185 MiB (5%)
Language : English
Service kind : Complete Main
Default : Yes
Forced : No

Text
ID : 3
Format : UTF-8
Codec ID : S_TEXT/UTF8
Codec ID/Info : UTF-8 Plain Text
Duration : 40 min 22 s
Bit rate : 68 b/s
Count of elements : 770
Stream size : 20.4 KiB (0%)
Language : English
Default : No
Forced : No





Chicago Fire S06E01


Chicago Fire S06E01


Chicago Fire S06E01


Chicago Fire S06E01


Chicago Fire S06E01

All episodes