Featured TV Shows


Chicago Fire S06E06

Posted By: Tavaz
1080p (FullHD) / WEB-DL IMDb
Chicago Fire S06E06

Chicago Fire S06E06
WEB-DL | MKV | 1920x1080 | English | H264 @ 10825 kbps | E-AC-3 @ 640 kbps | 40 min 57 s | 3.28 GiB
Subtitles: English
Genre: Drama

An edge-of-your-seat view into the lives of everyday heroes committed to one of America's noblest professions. For the firefighters, rescue squad and paramedics of Chicago Firehouse 51, no occupation is more stressful or dangerous, yet so rewarding and exhilarating. These courageous men and women are among the elite who forge headfirst into danger when everyone else is running the other way and whose actions make the difference between life and death.

0c81cdb6f3ae49c9bdb2f69f070dfac2.mkv (3.3 GB)



General
Unique ID : 128715575141055211586277466310112166148 (0x60D5B7D1F2F54FBD87360A245B27C104)
Complete name : ./0c81cdb6f3ae49c9bdb2f69f070dfac2.mkv
Format : Matroska
Format version : Version 4 / Version 2
File size : 3.28 GiB
Duration : 40 min 57 s
Overall bit rate mode : Variable
Overall bit rate : 11.5 Mb/s
Encoded date : UTC 2017-11-03 13:14:52
Writing application : mkvmerge v17.0.0 ('Be Ur Friend') 64-bit
Writing library : libebml v1.3.5 + libmatroska v1.4.8

Video
ID : 1
Format : AVC
Format/Info : Advanced Video Codec
Format profile : High@L4
Format settings : CABAC / 4 Ref Frames
Format settings, CABAC : Yes
Format settings, RefFrames : 4 frames
Codec ID : V_MPEG4/ISO/AVC
Duration : 40 min 57 s
Bit rate mode : Variable
Bit rate : 10.8 Mb/s
Maximum bit rate : 15.0 Mb/s
Width : 1 920 pixels
Height : 1 080 pixels
Display aspect ratio : 16:9
Frame rate mode : Constant
Frame rate : 23.976 (24000/1001) FPS
Color space : YUV
Chroma subsampling : 4:2:0
Bit depth : 8 bits
Scan type : Progressive
Bits/(Pixel*Frame) : 0.218
Stream size : 3.10 GiB (94%)
Default : Yes
Forced : No
Color range : Limited
Color primaries : BT.709
Transfer characteristics : BT.709
Matrix coefficients : BT.709

Audio
ID : 2
Format : E-AC-3
Format/Info : Enhanced Audio Coding 3
Format settings, Endianness : Big
Codec ID : A_EAC3
Duration : 40 min 57 s
Bit rate mode : Constant
Bit rate : 640 kb/s
Channel(s) : 6 channels
Channel positions : Front: L C R, Side: L R, LFE
Sampling rate : 48.0 kHz
Frame rate : 187.500 FPS (256 SPF)
Compression mode : Lossy
Stream size : 188 MiB (6%)
Language : English
Service kind : Complete Main
Default : Yes
Forced : No

Text
ID : 3
Format : UTF-8
Codec ID : S_TEXT/UTF8
Codec ID/Info : UTF-8 Plain Text
Duration : 40 min 51 s
Bit rate : 80 b/s
Count of elements : 888
Stream size : 24.0 KiB (0%)
Language : English
Default : No
Forced : No





Chicago Fire S06E06


Chicago Fire S06E06


Chicago Fire S06E06


Chicago Fire S06E06


Chicago Fire S06E06

All episodes